<?xml version="1.0" standalone="no"?>
<!DOCTYPE svg PUBLIC "-//W3C//DTD SVG 1.1//EN" "http://www.w3.org/Graphics/SVG/1.1/DTD/svg11.dtd">
<svg xmlns="http://www.w3.org/2000/svg"><defs><font id="flaticon" horiz-adv-x="512"><font-face units-per-em="512" ascent="448" descent="-64" x-height="240" cap-height="480"/><missing-glyph horiz-adv-x="512"/><glyph unicode="&#xE000;" glyph-name="account4" horiz-adv-x="512" d="M64 341.33333333333l0 -298.66666666667c0 -23.466666666667 19.2 -42.666666666667 42.666666666667 -42.666666666667h298.66666666667c23.466666666667 0 42.666666666667 19.2 42.666666666667 42.666666666667V341.33333333333c0 23.466666666667 -19.2 42.666666666667 -42.666666666667 42.666666666667H106.66666666667C83.2 384 64 364.8 64 341.33333333333zM320 256c0 -36.266666666667 -27.733333333333 -64 -64 -64c-36.266666666667 0 -64 27.733333333333 -64 64c0 36.266666666667 27.733333333333 64 64 64C292.26666666667 320 320 292.26666666667 320 256zM128 85.333333333333c0 42.666666666667 85.333333333333 66.133333333333 128 66.133333333333s128 -23.466666666667 128 -66.133333333333v-21.333333333333H128V85.333333333333z"/><glyph unicode="&#xE001;" glyph-name="add179" horiz-adv-x="512" d="M168.53333333333 375.46666666667L140.8 407.46666666667L42.666666666667 326.4l27.733333333333 -32L168.53333333333 375.46666666667zM469.33333333333 326.4l-98.133333333333 83.2l-27.733333333333 -32l98.133333333333 -83.2L469.33333333333 326.4zM256 362.66666666667c-106.66666666667 0 -192 -85.333333333333 -192 -192c0 -106.66666666667 85.333333333333 -192 192 -192s192 85.333333333333 192 192C448 277.33333333333 362.66666666667 362.66666666667 256 362.66666666667zM256 21.333333333333c-83.2 0 -149.33333333333 66.133333333333 -149.33333333333 149.33333333333c0 83.2 66.133333333333 149.33333333333 149.33333333333 149.33333333333c83.2 0 149.33333333333 -66.133333333333 149.33333333333 -149.33333333333C405.33333333333 87.466666666667 339.2 21.333333333333 256 21.333333333333zM277.33333333333 256h-42.666666666667v-64H170.66666666667v-42.666666666667h64v-64h42.666666666667v64h64v42.666666666667h-64V256z"/><glyph unicode="&#xE002;" glyph-name="add180" horiz-adv-x="512" d="M64 341.33333333333H21.333333333333v-341.33333333333c0 -23.466666666667 19.2 -42.666666666667 42.666666666667 -42.666666666667h341.33333333333v42.666666666667H64V341.33333333333zM448 426.66666666667H149.33333333333C125.86666666667 426.66666666667 106.66666666667 407.46666666667 106.66666666667 384v-298.66666666667c0 -23.466666666667 19.2 -42.666666666667 42.666666666667 -42.666666666667h298.66666666667c23.466666666667 0 42.666666666667 19.2 42.666666666667 42.666666666667V384C490.66666666667 407.46666666667 471.46666666667 426.66666666667 448 426.66666666667zM405.33333333333 213.33333333333h-85.333333333333v-85.333333333333h-42.666666666667v85.333333333333H192V256h85.333333333333V341.33333333333h42.666666666667v-85.333333333333h85.333333333333V213.33333333333z"/><glyph unicode="&#xE003;" glyph-name="add181" horiz-adv-x="512" d="M375.46666666667 324.26666666667C369.06666666667 334.93333333333 356.26666666667 341.33333333333 341.33333333333 341.33333333333L106.66666666667 341.33333333333C83.2 341.33333333333 64 322.13333333333 64 298.66666666667v-213.33333333333c0 -23.466666666667 19.2 -42.666666666667 42.666666666667 -42.666666666667l234.66666666667 0c14.933333333333 0 27.733333333333 6.4 34.133333333333 17.066666666667L469.33333333333 192L375.46666666667 324.26666666667z"/><glyph unicode="&#xE004;" glyph-name="add182" horiz-adv-x="512" d="M256 405.33333333333C138.66666666667 405.33333333333 42.666666666667 309.33333333333 42.666666666667 192s96 -213.33333333333 213.33333333333 -213.33333333333c117.33333333333 0 213.33333333333 96 213.33333333333 213.33333333333S373.33333333333 405.33333333333 256 405.33333333333zM362.66666666667 170.66666666667h-85.333333333333v-85.333333333333h-42.666666666667v85.333333333333H149.33333333333v42.666666666667h85.333333333333V298.66666666667h42.666666666667v-85.333333333333h85.333333333333V170.66666666667z"/><glyph unicode="&#xE005;" glyph-name="add183" horiz-adv-x="512" d="M469.33333333333 362.66666666667c0 23.466666666667 -19.2 42.666666666667 -42.666666666667 42.666666666667H85.333333333333C61.866666666667 405.33333333333 42.666666666667 386.13333333333 42.666666666667 362.66666666667v-256c0 -23.466666666667 19.2 -42.666666666667 42.666666666667 -42.666666666667h298.66666666667l85.333333333333 -85.333333333333L469.33333333333 362.66666666667zM384 149.33333333333H128v42.666666666667h256V149.33333333333zM384 213.33333333333H128V256h256V213.33333333333zM384 277.33333333333H128V320h256V277.33333333333z"/><glyph unicode="&#xE006;" glyph-name="add184" horiz-adv-x="512" d="M320 192c46.933333333333 0 85.333333333333 38.4 85.333333333333 85.333333333333c0 46.933333333333 -38.4 85.333333333333 -85.333333333333 85.333333333333c-46.933333333333 0 -85.333333333333 -38.4 -85.333333333333 -85.333333333333C234.66666666667 230.4 273.06666666667 192 320 192zM128 234.66666666667V298.66666666667H85.333333333333v-64H21.333333333333v-42.666666666667h64v-64h42.666666666667v64h64v42.666666666667H128zM320 149.33333333333c-57.6 0 -170.66666666667 -27.733333333333 -170.66666666667 -85.333333333333v-42.666666666667h341.33333333333v42.666666666667C490.66666666667 121.6 377.6 149.33333333333 320 149.33333333333z"/><glyph unicode="&#xE007;" glyph-name="add186" horiz-adv-x="512" d="M405.33333333333 170.66666666667h-128v-128h-42.666666666667v128H106.66666666667v42.666666666667h128V341.33333333333h42.666666666667v-128h128V170.66666666667z"/><glyph unicode="&#xE008;" glyph-name="adjust6" horiz-adv-x="512" d="M405.33333333333 384H106.66666666667C83.2 384 64 364.8 64 341.33333333333v-298.66666666667c0 -23.466666666667 19.2 -42.666666666667 42.666666666667 -42.666666666667h298.66666666667c23.466666666667 0 42.666666666667 19.2 42.666666666667 42.666666666667V341.33333333333C448 364.8 428.8 384 405.33333333333 384zM117.33333333333 288h42.666666666667v42.666666666667H192v-42.666666666667h42.666666666667V256H192v-42.666666666667H160V256h-42.666666666667V288zM405.33333333333 42.666666666667L106.66666666667 42.666666666667L405.33333333333 341.33333333333V42.666666666667zM362.66666666667 85.333333333333v32h-106.66666666667V85.333333333333H362.66666666667z"/><glyph unicode="&#xE009;" glyph-name="airplane106" horiz-adv-x="512" d="M217.6 256 M448 106.66666666667v42.666666666667l-170.66666666667 106.66666666667V373.33333333333C277.33333333333 390.4 262.4 405.33333333333 245.33333333333 405.33333333333C228.26666666667 405.33333333333 213.33333333333 390.4 213.33333333333 373.33333333333V256l-170.66666666667 -106.66666666667v-42.666666666667l170.66666666667 53.333333333333V42.666666666667l-42.666666666667 -32V-21.333333333333l74.666666666667 21.333333333333l74.666666666667 -21.333333333333v32L277.33333333333 42.666666666667v117.33333333333L448 106.66666666667z"/><glyph unicode="&#xE00A;" glyph-name="android11" horiz-adv-x="512" d="M106.66666666667 106.66666666667c0 -83.2 66.133333333333 -149.33333333333 149.33333333333 -149.33333333333c83.2 0 149.33333333333 66.133333333333 149.33333333333 149.33333333333v85.333333333333H106.66666666667V106.66666666667zM343.46666666667 354.13333333333l44.8 44.8l-17.066666666667 17.066666666667l-49.066666666667 -49.066666666667C302.93333333333 377.6 279.46666666667 384 256 384c-23.466666666667 0 -46.933333333333 -6.4 -66.133333333333 -14.933333333333L140.8 418.13333333333L123.73333333333 398.93333333333l44.8 -44.8C130.13333333333 328.53333333333 106.66666666667 283.73333333333 106.66666666667 234.66666666667v-21.333333333333h298.66666666667v21.333333333333C405.33333333333 283.73333333333 381.86666666667 328.53333333333 343.46666666667 354.13333333333zM192 256C179.2 256 170.66666666667 264.53333333333 170.66666666667 277.33333333333s8.5333333333333 21.333333333333 21.333333333333 21.333333333333c12.8 0 21.333333333333 -8.5333333333333 21.333333333333 -21.333333333333S204.8 256 192 256zM320 256c-12.8 0 -21.333333333333 8.5333333333333 -21.333333333333 21.333333333333s8.5333333333333 21.333333333333 21.333333333333 21.333333333333c12.8 0 21.333333333333 -8.5333333333333 21.333333333333 -21.333333333333S332.8 256 320 256z"/><glyph unicode="&#xE00B;" glyph-name="android12" horiz-adv-x="512" d="M128 64c0 -12.8 8.5333333333333 -21.333333333333 21.333333333333 -21.333333333333h21.333333333333v-74.666666666667C170.66666666667 -49.066666666667 185.6 -64 202.66666666667 -64c17.066666666667 0 32 14.933333333333 32 32V42.666666666667h42.666666666667v-74.666666666667c0 -17.066666666667 14.933333333333 -32 32 -32c17.066666666667 0 32 14.933333333333 32 32V42.666666666667h21.333333333333c12.8 0 21.333333333333 8.5333333333333 21.333333333333 21.333333333333V277.33333333333H128V64zM74.666666666667 277.33333333333C57.6 277.33333333333 42.666666666667 262.4 42.666666666667 245.33333333333v-149.33333333333C42.666666666667 78.933333333333 57.6 64 74.666666666667 64C91.733333333333 64 106.66666666667 78.933333333333 106.66666666667 96v149.33333333333C106.66666666667 262.4 91.733333333333 277.33333333333 74.666666666667 277.33333333333zM437.33333333333 277.33333333333C420.26666666667 277.33333333333 405.33333333333 262.4 405.33333333333 245.33333333333v-149.33333333333c0 -17.066666666667 14.933333333333 -32 32 -32c17.066666666667 0 32 14.933333333333 32 32v149.33333333333C469.33333333333 262.4 454.4 277.33333333333 437.33333333333 277.33333333333zM330.66666666667 401.06666666667l27.733333333333 27.733333333333c4.2666666666667 4.2666666666667 4.2666666666667 10.666666666667 0 14.933333333333c-4.2666666666667 4.2666666666667 -10.666666666667 4.2666666666667 -14.933333333333 0l-32 -32C296.53333333333 422.4 277.33333333333 426.66666666667 256 426.66666666667c-21.333333333333 0 -40.533333333333 -4.2666666666667 -57.6 -12.8L168.53333333333 445.86666666667C164.26666666667 448 155.73333333333 448 151.46666666667 445.86666666667C149.33333333333 441.6 149.33333333333 433.06666666667 151.46666666667 428.8l27.733333333333 -27.733333333333C149.33333333333 377.6 128 341.33333333333 128 298.66666666667h256C384 341.33333333333 362.66666666667 379.73333333333 330.66666666667 401.06666666667zM213.33333333333 341.33333333333H192V362.66666666667h21.333333333333V341.33333333333zM320 341.33333333333h-21.333333333333V362.66666666667h21.333333333333V341.33333333333z"/><glyph unicode="&#xE00C;" glyph-name="apple70" horiz-adv-x="512" d="M256 405.33333333333c23.466666666667 0 42.666666666667 -19.2 42.666666666667 -42.666666666667s-19.2 -42.666666666667 -42.666666666667 -42.666666666667s-42.666666666667 19.2 -42.666666666667 42.666666666667S232.53333333333 405.33333333333 256 405.33333333333zM448 256h-128v-277.33333333333h-42.666666666667v128h-42.666666666667v-128H192V256H64V298.66666666667h384V256z"/><glyph unicode="&#xE00D;" glyph-name="attachment19" horiz-adv-x="512" d="M160 64c-64 0 -117.33333333333 53.333333333333 -117.33333333333 117.33333333333S96 298.66666666667 160 298.66666666667H384c46.933333333333 0 85.333333333333 -38.4 85.333333333333 -85.333333333333s-38.4 -85.333333333333 -85.333333333333 -85.333333333333H202.66666666667C172.8 128 149.33333333333 151.46666666667 149.33333333333 181.33333333333S172.8 234.66666666667 202.66666666667 234.66666666667H362.66666666667v-32H202.66666666667c-12.8 0 -21.333333333333 -8.5333333333333 -21.333333333333 -21.333333333333s8.5333333333333 -21.333333333333 21.333333333333 -21.333333333333H384c29.866666666667 0 53.333333333333 23.466666666667 53.333333333333 53.333333333333S413.86666666667 266.66666666667 384 266.66666666667H160c-46.933333333333 0 -85.333333333333 -38.4 -85.333333333333 -85.333333333333s38.4 -85.333333333333 85.333333333333 -85.333333333333H362.66666666667V64H160z"/><glyph unicode="&#xE00E;" glyph-name="auto1" horiz-adv-x="512" d="M147.2 179.2h49.066666666667L170.66666666667 256L147.2 179.2zM469.33333333333 298.66666666667l-25.6 -134.4L411.73333333333 298.66666666667h-34.133333333333l-32 -134.4L320 298.66666666667h-17.066666666667C273.06666666667 337.06666666667 224 362.66666666667 170.66666666667 362.66666666667c-93.866666666667 0 -170.66666666667 -76.8 -170.66666666667 -170.66666666667s76.8 -170.66666666667 170.66666666667 -170.66666666667c66.133333333333 0 123.73333333333 38.4 153.6 93.866666666667l2.1333333333333 -8.5333333333333H362.66666666667l32 130.13333333333L426.66666666667 106.66666666667h38.4l42.666666666667 192H469.33333333333zM219.73333333333 106.66666666667l-14.933333333333 42.666666666667H136.53333333333l-14.933333333333 -42.666666666667H81.066666666667L149.33333333333 298.66666666667h42.666666666667l68.266666666667 -192H219.73333333333z"/><glyph unicode="&#xE00F;" glyph-name="automatic2" horiz-adv-x="512" d="M232.53333333333 179.2h49.066666666667L256 256L232.53333333333 179.2zM426.66666666667 262.4V362.66666666667h-100.26666666667L256 433.06666666667L185.6 362.66666666667H85.333333333333v-100.26666666667L14.933333333333 192L85.333333333333 121.6V21.333333333333h100.26666666667l70.4 -70.4l70.4 70.4H426.66666666667v100.26666666667l70.4 70.4L426.66666666667 262.4zM305.06666666667 106.66666666667l-14.933333333333 42.666666666667h-68.266666666667l-14.933333333333 -42.666666666667H166.4L234.66666666667 298.66666666667h42.666666666667l68.266666666667 -192H305.06666666667z"/><glyph unicode="&#xE010;" glyph-name="automatic3" horiz-adv-x="512" d="M64 405.33333333333v-256h64v-192l149.33333333333 256H192l85.333333333333 192H64zM405.33333333333 405.33333333333h-42.666666666667l-68.266666666667 -192h40.533333333333l14.933333333333 42.666666666667h68.266666666667l14.933333333333 -42.666666666667h40.533333333333L405.33333333333 405.33333333333zM360.53333333333 285.86666666667L384 362.66666666667l23.466666666667 -76.8H360.53333333333z"/><glyph unicode="&#xE011;" glyph-name="back57" horiz-adv-x="512" d="M213.33333333333 256V341.33333333333l-149.33333333333 -149.33333333333l149.33333333333 -149.33333333333v87.466666666667c106.66666666667 0 181.33333333333 -34.133333333333 234.66666666667 -108.8C426.66666666667 128 362.66666666667 234.66666666667 213.33333333333 256z"/><glyph unicode="&#xE012;" glyph-name="backspace1" horiz-adv-x="512" d="M469.33333333333 384H149.33333333333C134.4 384 123.73333333333 377.6 115.2 364.8L0 192l115.2 -172.8C03CF363AAB"/><glyph unicode="&#xE013;" glyph-name="bed24" horiz-adv-x="512" d="M213.33333333333 64h106.66666666667v128h-106.66666666667V64zM85.333333333333 64h106.66666666667V341.33333333333H85.333333333333V64zM341.33333333333 64h106.66666666667v128h-106.66666666667V64zM213.33333333333 341.33333333333v-128h234.66666666667V341.33333333333H213.33333333333z"/><glyph unicode="&#xE014;" glyph-name="been" horiz-adv-x="512" d="M405.33333333333 426.66666666667H106.66666666667C83.2 426.66666666667 64 407.46666666667 64 384l0 -275.2c0 -14.933333333333 6.4 -27.733333333333 19.2 -36.266666666667L256 -42.666666666667l172.8 115.2c10.666666666667 8.5333333333333 19.2 21.333333333333 19.2 36.266666666667L448 384C448 407.46666666667 428.8 426.66666666667 405.33333333333 426.66666666667zM213.33333333333 106.66666666667l-106.66666666667 106.66666666667l29.866666666667 29.866666666667l76.8 -76.8l162.13333333333 162.13333333333L405.33333333333 298.66666666667L213.33333333333 106.66666666667z"/><glyph unicode="&#xE015;" glyph-name="birthday20" horiz-adv-x="512" d="M256 330.66666666667c17.066666666667 0 32 14.933333333333 32 32c0 6.4 -2.1333333333333 10.666666666667 -4.2666666666667 17.066666666667L256 426.66666666667l-27.733333333333 -46.933333333333c-2.1333333333333 -4.2666666666667 -4.2666666666667 -10.666666666667 -4.2666666666667 -17.066666666667C224 345.6 238.93333333333 330.66666666667 256 330.66666666667zM394.66666666667 277.33333333333H277.33333333333V309.33333333333h-42.666666666667V277.33333333333H117.33333333333C64 277.33333333333 21.333333333333 234.66666666667 21.333333333333 181.33333333333c0 -34.133333333333 17.066666666667 -61.866666666667 42.666666666667 -78.933333333333V-42.666666666667h384v145.06666666667c25.6 17.066666666667 42.666666666667 46.933333333333 42.666666666667 78.933333333333C490.66666666667 234.66666666667 448 277.33333333333 394.66666666667 277.33333333333zM394.66666666667 128c-14.933333333333 0 -27.733333333333 6.4 -38.4 14.933333333333l-32 32l-32 -32C283.73333333333 134.4 270.93333333333 128 256 128c-14.933333333333 0 -27.733333333333 6.4 -38.4 14.933333333333l-32 32l-32 -32C145.06666666667 134.4 132.26666666667 128 117.33333333333 128C87.466666666667 128 64 151.46666666667 64 181.33333333333S87.466666666667 234.66666666667 117.33333333333 234.66666666667h277.33333333333c29.866666666667 0 53.333333333333 -23.466666666667 53.333333333333 -53.333333333333S424.53333333333 128 394.66666666667 128z"/><glyph unicode="&#xE016;" glyph-name="black394" horiz-adv-x="512" d="M277.33333333333 424.53333333333V256h149.33333333333C426.66666666667 343.46666666667 360.53333333333 413.86666666667 277.33333333333 424.53333333333zM85.333333333333 128c0 -93.866666666667 76.8 -170.66666666667 170.66666666667 -170.66666666667c93.866666666667 0 170.66666666667 76.8 170.66666666667 170.66666666667v85.333333333333H85.333333333333V128zM234.66666666667 424.53333333333C151.46666666667 413.86666666667 85.333333333333 343.46666666667 85.333333333333 256h149.33333333333V424.53333333333z"/><glyph unicode="&#xE017;" glyph-name="black395" horiz-adv-x="512" d="M413.86666666667 234.66666666667c-14.933333333333 72.533333333333 -78.933333333333 128 -157.86666666667 128C194.13333333333 362.66666666667 140.8 328.53333333333 115.2 277.33333333333C49.066666666667 268.8 0 215.46666666667 0 149.33333333333c0 -70.4 57.6 -128 128 -128h277.33333333333c59.733333333333 0 106.66666666667 46.933333333333 106.66666666667 106.66666666667C512 183.46666666667 467.2 230.4 413.86666666667 234.66666666667z"/><glyph unicode="&#xE018;" glyph-name="black396" horiz-adv-x="512" d="M362.66666666667 405.33333333333H149.33333333333C125.86666666667 405.33333333333 106.66666666667 386.13333333333 106.66666666667 362.66666666667v-341.33333333333c0 -23.466666666667 19.2 -42.666666666667 42.666666666667 -42.666666666667l213.33333333333 0c23.466666666667 0 42.666666666667 19.2 42.666666666667 42.666666666667V362.66666666667C405.33333333333 386.13333333333 386.13333333333 405.33333333333 362.66666666667 405.33333333333zM256 362.66666666667c23.466666666667 0 42.666666666667 -19.2 42.666666666667 -42.666666666667s-19.2 -42.666666666667 -42.666666666667 -42.666666666667c-23.466666666667 0 -42.666666666667 19.2 -42.666666666667 42.666666666667S232.53333333333 362.66666666667 256 362.66666666667zM256 21.333333333333c-59.733333333333 0 -106.66666666667 46.933333333333 -106.66666666667 106.66666666667s46.933333333333 106.66666666667 106.66666666667 106.66666666667c59.733333333333 0 106.66666666667 -46.933333333333 106.66666666667 -106.66666666667S315.73333333333 21.333333333333 256 21.333333333333zM256 192c-36.266666666667 0 -64 -27.733333333333 -64 -64c0 -36.266666666667 27.733333333333 -64 64 -64c36.266666666667 0 64 27.733333333333 64 64C320 164.26666666667 292.26666666667 192 256 192z"/><glyph unicode="&#xE019;" glyph-name="black397" horiz-adv-x="512" d="M362.66666666667 224V298.66666666667c0 12.8 -8.5333333333333 21.333333333333 -21.333333333333 21.333333333333H85.333333333333C72.533333333333 320 64 311.46666666667 64 298.66666666667v-213.33333333333c0 -12.8 8.5333333333333 -21.333333333333 21.333333333333 -21.333333333333h256c12.8 0 21.333333333333 8.5333333333333 21.333333333333 21.333333333333v74.666666666667l85.333333333333 -85.333333333333v234.66666666667L362.66666666667 224z"/><glyph unicode="&#xE01A;" glyph-name="black398" horiz-adv-x="512" d="M426.66666666667 341.33333333333H85.333333333333C61.866666666667 341.33333333333 42.666666666667 322.13333333333 42.666666666667 298.66666666667l0 -213.33333333333c0 -23.466666666667 19.2 -42.666666666667 42.666666666667 -42.666666666667h341.33333333333c23.466666666667 0 42.666666666667 19.2 42.666666666667 42.666666666667V298.66666666667C469.33333333333 322.13333333333 450.13333333333 341.33333333333 426.66666666667 341.33333333333zM234.66666666667 277.33333333333h42.666666666667v-42.666666666667h-42.666666666667V277.33333333333zM234.66666666667 213.33333333333h42.666666666667v-42.666666666667h-42.666666666667V213.33333333333zM170.66666666667 277.33333333333h42.666666666667v-42.666666666667H170.66666666667V277.33333333333zM170.66666666667 213.33333333333h42.666666666667v-42.666666666667H170.66666666667V213.33333333333zM149.33333333333 170.66666666667H106.66666666667v42.666666666667h42.666666666667V170.66666666667zM149.33333333333 234.66666666667H106.66666666667V277.33333333333h42.666666666667V234.66666666667zM341.33333333333 85.333333333333H170.66666666667v42.666666666667h170.66666666667V85.333333333333zM341.33333333333 170.66666666667h-42.666666666667v42.666666666667h42.666666666667V170.66666666667zM341.33333333333 234.66666666667h-42.666666666667V277.33333333333h42.666666666667V234.66666666667zM405.33333333333 170.66666666667h-42.666666666667v42.666666666667h42.666666666667V170.66666666667zM405.33333333333 234.66666666667h-42.666666666667V277.33333333333h42.666666666667V234.66666666667z"/><glyph unicode="&#xE01B;" glyph-name="black399" horiz-adv-x="512" d="M405.33333333333 384H106.66666666667C83.2 384 64 364.8 64 341.33333333333v-298.66666666667c0 -23.466666666667 19.2 -42.666666666667 42.666666666667 -42.666666666667h298.66666666667c23.466666666667 0 42.666666666667 19.2 42.666666666667 42.666666666667V341.33333333333C448 364.8 428.8 384 405.33333333333 384zM213.33333333333 85.333333333333l-106.66666666667 106.66666666667l29.866666666667 29.866666666667l76.8 -76.8l162.13333333333 162.13333333333L405.33333333333 277.33333333333L213.33333333333 85.333333333333z"/><glyph unicode="&#xE01C;" glyph-name="black400" horiz-adv-x="512" d="M426.66666666667 405.33333333333H85.333333333333C61.866666666667 405.33333333333 42.666666666667 386.13333333333 42.666666666667 362.66666666667v-384l85.333333333333 85.333333333333h298.66666666667c23.466666666667 0 42.666666666667 19.2 42.666666666667 42.666666666667V362.66666666667C469.33333333333 386.13333333333 450.13333333333 405.33333333333 426.66666666667 405.33333333333z"/><glyph unicode="&#xE01D;" glyph-name="black401" horiz-adv-x="512" d="M320 230.4 M469.33333333333 202.66666666667c0 17.066666666667 -14.933333333333 32 -32 32H320l-106.66666666667 170.66666666667H170.66666666667l53.333333333333 -170.66666666667H106.66666666667L74.666666666667 277.33333333333H42.666666666667l21.333333333333 -74.666666666667L42.666666666667 128h32L106.66666666667 170.66666666667h117.33333333333L170.66666666667 0h42.666666666667l106.66666666667 170.66666666667h117.33333333333C454.4 170.66666666667 469.33333333333 185.6 469.33333333333 202.66666666667z"/><glyph unicode="&#xE01E;" glyph-name="black402" horiz-adv-x="512" d="M426.66666666667 362.66666666667H85.333333333333C61.866666666667 362.66666666667 42.666666666667 343.46666666667 42.666666666667 320l0 -256c0 -23.466666666667 19.2 -42.666666666667 42.666666666667 -42.666666666667h341.33333333333c23.466666666667 0 42.666666666667 19.2 42.666666666667 42.666666666667V320C469.33333333333 343.46666666667 450.13333333333 362.66666666667 426.66666666667 362.66666666667zM426.66666666667 277.33333333333l-170.66666666667 -106.66666666667L85.333333333333 277.33333333333V320l170.66666666667 -106.66666666667l170.66666666667 106.66666666667V277.33333333333z"/><glyph unicode="&#xE01F;" glyph-name="blank30" horiz-adv-x="512" d="M405.33333333333 384H106.66666666667C83.2 384 64 364.8 64 341.33333333333l0 -298.66666666667c0 -23.466666666667 19.2 -42.666666666667 42.666666666667 -42.666666666667h298.66666666667c23.466666666667 0 42.666666666667 19.2 42.666666666667 42.666666666667V341.33333333333C448 364.8 428.8 384 405.33333333333 384z"/><glyph unicode="&#xE020;" glyph-name="blank31" horiz-adv-x="512" d="M384 362.66666666667H128C104.53333333333 362.66666666667 85.333333333333 343.46666666667 85.333333333333 320v-256c0 -23.466666666667 19.2 -42.666666666667 42.666666666667 -42.666666666667h256c23.466666666667 0 42.666666666667 19.2 42.666666666667 42.666666666667V320C426.66666666667 343.46666666667 407.46666666667 362.66666666667 384 362.66666666667zM384 64H128V320h256V64z"/><glyph unicode="&#xE021;" glyph-name="blank32" horiz-adv-x="512" d="M405.33333333333 341.33333333333v-298.66666666667L106.66666666667 42.666666666667V341.33333333333H405.33333333333 M405.33333333333 384H106.66666666667C83.2 384 64 364.8 64 341.33333333333v-298.66666666667c0 -23.466666666667 19.2 -42.666666666667 42.666666666667 -42.666666666667h298.66666666667c23.466666666667 0 42.666666666667 19.2 42.666666666667 42.666666666667V341.33333333333C448 364.8 428.8 384 405.33333333333 384L405.33333333333 384z"/><glyph unicode="&#xE022;" glyph-name="blank33" horiz-adv-x="512" d="M362.66666666667 384H149.33333333333C125.86666666667 384 106.66666666667 364.8 106.66666666667 341.33333333333v-298.66666666667c0 -23.466666666667 19.2 -42.666666666667 42.666666666667 -42.666666666667h213.33333333333c23.466666666667 0 42.666666666667 19.2 42.666666666667 42.666666666667V341.33333333333C405.33333333333 364.8 386.13333333333 384 362.66666666667 384zM362.66666666667 42.666666666667H149.33333333333V341.33333333333h213.33333333333V42.666666666667z"/><glyph unicode="&#xE023;" glyph-name="blogger12" horiz-adv-x="512" d="M426.66666666667 405.33333333333H85.333333333333C61.866666666667 405.33333333333 42.666666666667 386.13333333333 42.666666666667 362.66666666667l0 -341.33333333333c0 -23.466666666667 19.2 -42.666666666667 42.666666666667 -42.666666666667h341.33333333333c23.466666666667 0 42.666666666667 19.2 42.666666666667 42.666666666667V362.66666666667C469.33333333333 386.13333333333 450.13333333333 405.33333333333 426.66666666667 405.33333333333zM341.33333333333 256v-21.333333333333c0 -12.8 8.5333333333333 -21.333333333333 21.333333333333 -21.333333333333c12.8 0 21.333333333333 -8.5333333333333 21.333333333333 -21.333333333333v-64c0 -36.266666666667 -27.733333333333 -64 -64 -64H192c-36.266666666667 0 -64 27.733333333333 -64 64V277.33333333333c0 36.266666666667 27.733333333333 64 64 64h85.333333333333c36.266666666667 0 64 -27.733333333333 64 -64V256zM213.33333333333 234.66666666667h55.466666666667c12.8 0 21.333333333333 8.5333333333333 21.333333333333 21.333333333333c0 12.8 -8.5333333333333 21.333333333333 -21.333333333333 21.333333333333H213.33333333333C200.53333333333 277.33333333333 192 268.8 192 256C192 243.2 200.53333333333 234.66666666667 213.33333333333 234.66666666667zM298.66666666667 170.66666666667h-85.333333333333c-12.8 0 -21.333333333333 -8.5333333333333 -21.333333333333 -21.333333333333c0 -12.8 8.5333333333333 -21.333333333333 21.333333333333 -21.333333333333h85.333333333333c12.8 0 21.333333333333 8.5333333333333 21.333333333333 21.333333333333C320 162.13333333333 311.46666666667 170.66666666667 298.66666666667 170.66666666667z"/><glyph unicode="&#xE024;" glyph-name="blueetooth" horiz-adv-x="512" d="M377.6 283.73333333333L256 405.33333333333h-21.333333333333v-162.13333333333L136.53333333333 341.33333333333L106.66666666667 311.46666666667l119.46666666667 -119.46666666667L106.66666666667 72.533333333333L136.53333333333 42.666666666667l98.133333333333 98.133333333333V-21.333333333333h21.333333333333l121.6 121.6L285.86666666667 192L377.6 283.73333333333zM277.33333333333 324.26666666667l40.533333333333 -40.533333333333L277.33333333333 243.2V324.26666666667zM317.86666666667 100.26666666667L277.33333333333 59.733333333333v81.066666666667L317.86666666667 100.26666666667z"/><glyph unicode="&#xE025;" glyph-name="bluetooth21" horiz-adv-x="512" d="M277.33333333333 324.26666666667l40.533333333333 -40.533333333333l-34.133333333333 -34.133333333333l29.866666666667 -29.866666666667l64 64L256 405.33333333333h-21.333333333333v-106.66666666667l42.666666666667 -42.666666666667V324.26666666667zM115.2 362.66666666667L85.333333333333 332.8l140.8 -140.8L106.66666666667 72.533333333333L136.53333333333 42.666666666667l98.133333333333 98.133333333333V-21.333333333333h21.333333333333l91.733333333333 91.733333333333l49.066666666667 -49.066666666667l29.866666666667 29.866666666667L115.2 362.66666666667zM277.33333333333 59.733333333333v81.066666666667l40.533333333333 -40.533333333333L277.33333333333 59.733333333333z"/><glyph unicode="&#xE026;" glyph-name="bluetooth22" horiz-adv-x="512" d="M302.93333333333 192l49.066666666667 -49.066666666667c6.4 14.933333333333 8.5333333333333 32 8.5333333333333 49.066666666667c0 17.066666666667 -4.2666666666667 34.133333333333 -8.5333333333333 49.066666666667L302.93333333333 192zM416 305.06666666667L390.4 277.33333333333c12.8 -25.6 21.333333333333 -55.466666666667 21.333333333333 -85.333333333333s-8.5333333333333 -59.733333333333 -21.333333333333 -85.333333333333l25.6 -25.6c21.333333333333 32 32 72.533333333333 32 113.06666666667C448 234.66666666667 437.33333333333 273.06666666667 416 305.06666666667zM334.93333333333 283.73333333333L213.33333333333 405.33333333333H192v-162.13333333333L93.866666666667 341.33333333333L64 311.46666666667L183.46666666667 192L64 72.533333333333L93.866666666667 42.666666666667L192 140.8V-21.333333333333h21.333333333333l121.6 121.6L243.2 192L334.93333333333 283.73333333333zM234.66666666667 324.26666666667l40.533333333333 -40.533333333333L234.66666666667 243.2V324.26666666667zM275.2 100.26666666667L234.66666666667 59.733333333333v81.066666666667L275.2 100.26666666667z"/><glyph unicode="&#xE027;" glyph-name="bluetooth23" horiz-adv-x="512" d="M302.93333333333 192l49.066666666667 -49.066666666667c6.4 14.933333333333 8.5333333333333 32 8.5333333333333 49.066666666667c0 17.066666666667 -4.2666666666667 34.133333333333 -8.5333333333333 49.066666666667L302.93333333333 192zM416 305.06666666667L390.4 277.33333333333c12.8 -25.6 21.333333333333 -55.466666666667 21.333333333333 -85.333333333333s-8.5333333333333 -59.733333333333 -21.333333333333 -85.333333333333l25.6 -25.6c21.333333333333 32 32 72.533333333333 32 113.06666666667C448 234.66666666667 437.33333333333 273.06666666667 416 305.06666666667zM334.93333333333 283.73333333333L213.33333333333 405.33333333333H192v-162.13333333333L93.866666666667 341.33333333333L64 311.46666666667L183.46666666667 192L64 72.533333333333L93.866666666667 42.666666666667L192 140.8V-21.333333333333h21.333333333333l121.6 121.6L243.2 192L334.93333333333 283.73333333333zM234.66666666667 324.26666666667l40.533333333333 -40.533333333333L234.66666666667 243.2V324.26666666667zM275.2 100.26666666667L234.66666666667 59.733333333333v81.066666666667L275.2 100.26666666667z"/><glyph unicode="&#xE028;" glyph-name="bluetooth24" horiz-adv-x="512" d="M149.33333333333 192l-42.666666666667 42.666666666667l-42.666666666667 -42.666666666667l42.666666666667 -42.666666666667L149.33333333333 192zM377.6 283.73333333333L256 405.33333333333h-21.333333333333v-162.13333333333L136.53333333333 341.33333333333L106.66666666667 311.46666666667l119.46666666667 -119.46666666667L106.66666666667 72.533333333333L136.53333333333 42.666666666667l98.133333333333 98.133333333333V-21.333333333333h21.333333333333l121.6 121.6L285.86666666667 192L377.6 283.73333333333zM277.33333333333 324.26666666667l40.533333333333 -40.533333333333L277.33333333333 243.2V324.26666666667zM317.86666666667 100.26666666667L277.33333333333 59.733333333333v81.066666666667L317.86666666667 100.26666666667zM405.33333333333 234.66666666667l-42.666666666667 -42.666666666667l42.666666666667 -42.666666666667l42.666666666667 42.666666666667L405.33333333333 234.66666666667z"/><glyph unicode="&#xE029;" glyph-name="bluetooth25" horiz-adv-x="512" d="M234.66666666667 -64h42.666666666667v42.666666666667h-42.666666666667V-64zM149.33333333333 -64h42.666666666667v42.666666666667H149.33333333333V-64zM320 -64h42.666666666667v42.666666666667h-42.666666666667V-64zM377.6 326.4L256 448h-21.333333333333v-162.13333333333L136.53333333333 384L106.66666666667 354.13333333333l119.46666666667 -119.46666666667L106.66666666667 115.2L136.53333333333 85.333333333333l98.133333333333 98.133333333333V21.333333333333h21.333333333333l121.6 121.6L285.86666666667 234.66666666667L377.6 326.4zM277.33333333333 366.93333333333l40.533333333333 -40.533333333333L277.33333333333 285.86666666667V366.93333333333zM317.86666666667 142.93333333333L277.33333333333 102.4v81.066666666667L317.86666666667 142.93333333333z"/><glyph unicode="&#xE02A;" glyph-name="bookmark45" horiz-adv-x="512" d="M469.33333333333 250.79466666667l-153.408 13.162666666667L256 405.33333333333L196.07466666667 263.950B7FB9AA45"/><glyph unicode="&#xE02B;" glyph-name="bookmark46" horiz-adv-x="512" d="M384 -21.333333333333c23.466666666667 0 42.666666666667 19.2 42.666666666667 42.666666666667V362.66666666667c0 23.466666666667 -19.2 42.666666666667 -42.666666666667 42.666666666667h-128v-149.33333333333L202.66666666667 288L149.33333333333 256V405.33333333333H128C104.53333333333 405.33333333333 85.333333333333 386.13333333333 85.333333333333 362.66666666667v-341.33333333333c0 -23.466666666667 19.2 -42.666666666667 42.666666666667 -42.666666666667H384z"/><glyph unicode="&#xE02C;" glyph-name="bookmark47" horiz-adv-x="512" d="M362.66666666667 384H149.33333333333C125.86666666667 384 106.66666666667 364.8 106.66666666667 341.33333333333l0 -341.33333333333l149.33333333333 64l149.33333333333 -64V341.33333333333C405.33333333333 364.8 386.13333333333 384 362.66666666667 384z"/><glyph unicode="&#xE02D;" glyph-name="bookmark48" horiz-adv-x="512" d="M362.66666666667 384H149.33333333333C125.86666666667 384 106.66666666667 364.8 106.66666666667 341.33333333333l0 -341.33333333333l149.33333333333 64l149.33333333333 -64V341.33333333333C405.33333333333 364.8 386.13333333333 384 362.66666666667 384zM362.66666666667 64l-106.66666666667 46.933333333333L149.33333333333 64V341.33333333333h213.33333333333V64z"/><glyph unicode="&#xE02E;" glyph-name="briefcase49" horiz-adv-x="512" d="M426.66666666667 320h-85.333333333333V362.66666666667l-42.666666666667 42.666666666667h-85.333333333333L170.66666666667 362.66666666667v-42.666666666667H85.333333333333C61.866666666667 320 42.666666666667 300.8 42.666666666667 277.33333333333l0 -234.66666666667c0 -23.466666666667 19.2 -42.666666666667 42.666666666667 -42.666666666667h341.33333333333c23.466666666667 0 42.666666666667 19.2 42.666666666667 42.666666666667V277.33333333333C469.33333333333 300.8 450.13333333333 320 426.66666666667 320zM213.33333333333 362.66666666667h85.333333333333v-42.666666666667h-85.333333333333V362.66666666667zM256 42.666666666667l-106.66666666667 106.66666666667h64v85.333333333333h85.333333333333v-85.333333333333h64L256 42.666666666667z"/><glyph unicode="&#xE02F;" glyph-name="briefcase50" horiz-adv-x="512" d="M426.66666666667 320h-85.333333333333V362.66666666667l-42.666666666667 42.666666666667h-85.333333333333L170.66666666667 362.66666666667v-42.666666666667H85.333333333333C61.866666666667 320 42.666666666667 300.8 42.666666666667 277.33333333333l0 -234.66666666667c0 -23.466666666667 19.2 -42.666666666667 42.666666666667 -42.666666666667h341.33333333333c23.466666666667 0 42.666666666667 19.2 42.666666666667 42.666666666667V277.33333333333C469.33333333333 300.8 450.13333333333 320 426.66666666667 320zM213.33333333333 362.66666666667h85.333333333333v-42.666666666667h-85.333333333333V362.66666666667zM224 74.666666666667L149.33333333333 149.33333333333l29.866666666667 29.866666666667l44.8 -44.8l110.93333333333 110.93333333333l29.866666666667 -29.866666666667L224 74.666666666667z"/><glyph unicode="&#xE030;" glyph-name="brightness10" horiz-adv-x="512" d="M426.66666666667 121.6l70.4 70.4L426.66666666667 262.4V362.66666666667h-100.26666666667L256 433.06666666667L185.6 362.66666666667H85.333333333333v-100.26666666667L14.933333333333 192L85.333333333333 121.6V21.333333333333h100.26666666667l70.4 -70.4l70.4 70.4H426.66666666667V121.6zM256 64c-70.4 0 -128 57.6 -128 128s57.6 128 128 128c70.4 0 128 -57.6 128 -128S326.4 64 256 64z"/><glyph unicode="&#xE031;" glyph-name="brochure6" horiz-adv-x="512" d="M85.333333333333 64h64V341.33333333333H85.333333333333V64zM384 341.33333333333v-277.33333333333h64V341.33333333333H384zM170.66666666667 64h192V341.33333333333H170.66666666667V64z"/><glyph unicode="&#xE032;" glyph-name="bubble8" horiz-adv-x="512" d="M426.66666666667 405.33333333333H85.333333333333C61.866666666667 405.33333333333 42.666666666667 386.13333333333 42.666666666667 362.66666666667l0 -384l85.333333333333 85.333333333333h298.66666666667c23.466666666667 0 42.666666666667 19.2 42.666666666667 42.666666666667V362.66666666667C469.33333333333 386.13333333333 450.13333333333 405.33333333333 426.66666666667 405.33333333333zM384 149.33333333333H128v42.666666666667h256V149.33333333333zM384 213.33333333333H128V256h256V213.33333333333zM384 277.33333333333H128V320h256V277.33333333333z"/><glyph unicode="&#xE033;" glyph-name="bug18" horiz-adv-x="512" d="M426.66666666667 277.33333333333h-59.733333333333c-10.666666666667 17.066666666667 -23.466666666667 32 -38.4 42.666666666667L362.66666666667 354.13333333333L332.8 384l-46.933333333333 -46.933333333333C277.33333333333 339.2 266.66666666667 341.33333333333 256 341.33333333333s-21.333333333333 -2.1333333333333 -29.866666666667 -4.2666666666667L179.2 384L149.33333333333 354.13333333333L183.46666666667 320C168.53333333333 309.33333333333 155.73333333333 294.4 145.06666666667 277.33333333333H85.333333333333v-42.666666666667h44.8C128 228.26666666667 128 219.73333333333 128 213.33333333333v-21.333333333333H85.333333333333v-42.666666666667h42.666666666667v-21.333333333333c0 -6.4 0 -14.933333333333 2.1333333333333 -21.333333333333H85.333333333333v-42.666666666667h59.733333333333c21.333333333333 -38.4 64 -64 110.93333333333 -64s89.6 25.6 110.93333333333 64H426.66666666667v42.666666666667h-44.8c2.1333333333333 6.4 2.1333333333333 14.933333333333 2.1333333333333 21.333333333333v21.333333333333h42.666666666667v42.666666666667h-42.666666666667v21.333333333333c0 6.4 0 14.933333333333 -2.1333333333333 21.333333333333H426.66666666667V277.33333333333zM298.66666666667 106.66666666667h-85.333333333333v42.666666666667h85.333333333333V106.66666666667zM298.66666666667 192h-85.333333333333v42.666666666667h85.333333333333V192z"/><glyph unicode="&#xE034;" glyph-name="burn9" horiz-adv-x="512" d="M298.66666666667 405.33333333333c0 0 12.8 -53.333333333333 12.8 -96c0 -40.533333333333 -27.733333333333 -74.666666666667 -68.266666666667 -74.666666666667C202.66666666667 234.66666666667 170.66666666667 268.8 170.66666666667 309.33333333333l0 6.4c-40.533333333333 -49.066666666667 -64 -110.93333333333 -64 -177.06666666667c0 -87.466666666667 72.533333333333 -160 160 -160c87.466666666667 0 160 72.533333333333 160 160C426.66666666667 247.46666666667 377.6 343.46666666667 298.66666666667 405.33333333333zM266.66666666667 42.666666666667c-36.266666666667 0 -64 27.733333333333 -64 61.866666666667c0 32 21.333333333333 55.466666666667 55.466666666667 61.866666666667c36.266666666667 6.4 72.533333333333 23.466666666667 91.733333333333 51.2c8.5333333333333 -25.6 12.8 -53.333333333333 12.8 -81.066666666667C362.66666666667 85.333333333333 320 42.666666666667 266.66666666667 42.666666666667z"/><glyph unicode="&#xE035;" glyph-name="button11" horiz-adv-x="512" d="M405.33333333333 384H106.66666666667C83.2 384 64 364.8 64 341.33333333333v-298.66666666667c0 -23.466666666667 19.2 -42.666666666667 42.666666666667 -42.666666666667h298.66666666667c23.466666666667 0 42.666666666667 19.2 42.666666666667 42.666666666667V341.33333333333C448 364.8 428.8 384 405.33333333333 384zM256 64c-70.4 0 -128 57.6 -128 128s57.6 128 128 128c70.4 0 128 -57.6 128 -128S326.4 64 256 64zM170.66666666667 192C170.66666666667 239.12829866667 208.87170133333 277.33333333333 256 277.33333333333C303.12829866667 277.33333333333 341.33333333333 239.12829866667 341.33333333333 192C341.33333333333 144.87170133333 303.12829866667 106.66666666667 256 106.66666666667C208.87170133333 106.66666666667 170.66666666667 144.87170133333 170.66666666667 192Z"/><glyph unicode="&#xE036;" glyph-name="call47" horiz-adv-x="512" d="M448 354.13333333333L418.13333333333 384L149.33333333333 115.2L149.33333333333 256L106.66666666667 256L106.66666666667 42.666666666667L320 42.666666666667L320 85.333333333333L179.2 85.333333333333Z"/><glyph unicode="&#xE037;" glyph-name="call48" horiz-adv-x="512" d="M384 213.33333333333l106.66666666667 106.66666666667l-106.66666666667 106.66666666667v-64h-85.333333333333v-85.333333333333h85.333333333333V213.33333333333zM426.66666666667 117.33333333333c-25.6 0 -51.2 4.2666666666667 -76.8 12.8c-6.4 2.1333333333333 -14.933333333333 0 -21.333333333333 -4.2666666666667l-46.933333333333 -46.933333333333c-59.733333333333 29.866666666667 -108.8 81.066666666667 -140.8 140.8l46.933333333333 46.933333333333c6.4 6.4 8.5333333333333 14.933333333333 4.2666666666667 21.333333333333C185.6 311.46666666667 181.33333333333 337.06666666667 181.33333333333 362.66666666667c0 12.8 -8.5333333333333 21.333333333333 -21.333333333333 21.333333333333H85.333333333333C72.533333333333 384 64 375.46666666667 64 362.66666666667c0 -200.53333333333 162.13333333333 -362.66666666667 362.66666666667 -362.66666666667c12.8 0 21.333333333333 8.5333333333333 21.333333333333 21.333333333333v74.666666666667C448 108.8 439.46666666667 117.33333333333 426.66666666667 117.33333333333z"/><glyph unicode="&#xE038;" glyph-name="call49" horiz-adv-x="512" d="M192 341.33333333333L192 298.66666666667L332.8 298.66666666667L64 29.866666666667L93.866666666667 0L362.66666666667 268.8L362.66666666667 128L405.33333333333 128L405.33333333333 341.33333333333Z"/><glyph unicode="&#xE039;" glyph-name="camera59" horiz-adv-x="512" d="M192 192C192 227.346224 220.653776 256 256 256C291.346224 256 320 227.346224 320 192C320 156.653776 291.346224 128 256 128C220.653776 128 192 156.653776 192 192ZM192 405.33333333333L153.6 362.66666666667H85.333333333333C61.866666666667 362.66666666667 42.666666666667 343.46666666667 42.666666666667 320v-256c0 -23.466666666667 19.2 -42.666666666667 42.666666666667 -42.666666666667h341.33333333333c23.466666666667 0 42.666666666667 19.2 42.666666666667 42.666666666667V320c0 23.466666666667 -19.2 42.666666666667 -42.666666666667 42.666666666667h-68.266666666667L320 405.33333333333H192zM256 85.333333333333c-59.733333333333 0 -106.66666666667 46.933333333333 -106.66666666667 106.66666666667s46.933333333333 106.66666666667 106.66666666667 106.66666666667s106.66666666667 -46.933333333333 106.66666666667 -106.66666666667S315.73333333333 85.333333333333 256 85.333333333333z"/><glyph unicode="&#xE03A;" glyph-name="camera60" horiz-adv-x="512" d="M200.53333333333 224l102.4 177.06666666667C288 403.2 270.93333333333 405.33333333333 256 405.33333333333C204.8 405.33333333333 157.86666666667 388.26666666667 121.6 356.26666666667l78.933333333333 -134.4L200.53333333333 224zM458.66666666667 256c-19.2 61.866666666667 -66.133333333333 113.06666666667 -128 134.4L253.86666666667 256H458.66666666667zM465.06666666667 234.66666666667h-160l6.4 -10.666666666667l102.4 -177.06666666667C448 85.333333333333 469.33333333333 136.53333333333 469.33333333333 192C469.33333333333 206.93333333333 467.2 221.86666666667 465.06666666667 234.66666666667zM181.33333333333 192L98.133333333333 337.06666666667C64 298.66666666667 42.666666666667 247.46666666667 42.666666666667 192c0 -14.933333333333 2.1333333333333 -29.866666666667 4.2666666666667 -42.666666666667h160L181.33333333333 192zM53.333333333333 128c19.2 -61.866666666667 66.133333333333 -113.06666666667 128 -134.4l78.933333333333 134.4H53.333333333333zM292.26666666667 128l-83.2 -145.06666666667c14.933333333333 -4.2666666666667 29.866666666667 -4.2666666666667 46.933333333333 -4.2666666666667c51.2 0 98.133333333333 17.066666666667 134.4 49.066666666667l-78.933333333333 134.4L292.26666666667 128z"/><glyph unicode="&#xE03B;" glyph-name="cancel19" horiz-adv-x="512" d="M256 405.33333333333C138.66666666667 405.33333333333 42.666666666667 309.33333333333 42.6666666666670178DFFA6A"/><glyph unicode="&#xE03C;" glyph-name="caps1" horiz-adv-x="512" d="M298.66666666667 106.66666666667h106.66666666667v106.66666666667h64l-117.33333333333 117.3333333333302814CBA06"/><glyph unicode="&#xE03D;" glyph-name="caps" horiz-adv-x="512" d="M256 268.8l98.133333333333 -98.133333333333l29.866666666667 29.866666666667l-128 128l-128 -128L157.86666666667 170.66666666667L256 268.8zM128 64h256v42.666666666667H128V64z"/><glyph unicode="&#xE03E;" glyph-name="car145" horiz-adv-x="512" d="M403.2 341.33333333333c-4.2666666666667 12.8 -17.066666666667 21.333333333333 -29.866666666667 21.333333333333h-234.66666666667C123.73333333333 362.66666666667 113.06666666667 354.13333333333 108.8 341.33333333333L64 213.33333333333v-170.66666666667c0 -12.8 8.5333333333333 -21.333333333333 21.333333333333 -21.333333333333h21.333333333333c12.8 0 21.333333333333 8.5333333333333 21.333333333333 21.333333333333v21.333333333333h256v-21.333333333333c0 -12.8 8.5333333333333 -21.333333333333 21.333333333333 -21.333333333333h21.333333333333c12.8 0 21.333333333333 8.5333333333333 21.333333333333 21.333333333333v170.66666666667L403.2 341.33333333333zM138.66666666667 128C121.6 128 106.66666666667 142.93333333333 106.66666666667 160S121.6 192 138.66666666667 192C155.73333333333 192 170.66666666667 177.06666666667 170.66666666667 160S155.73333333333 128 138.66666666667 128zM373.33333333333 128c-17.066666666667 0 -32 14.933333333333 -32 32s14.933333333333 32 32 32c17.066666666667 0 32 -14.933333333333 32 -32S390.4 128 373.33333333333 128zM106.66666666667 234.66666666667l32 96h234.66666666667L405.33333333333 234.66666666667H106.66666666667z"/><glyph unicode="&#xE03F;" glyph-name="car146" horiz-adv-x="512" d="M403.2 320c-4.2666666666667 12.8 -17.066666666667 21.333333333333 -29.866666666667 21.333333333333h-234.66666666667C123.73333333333 341.33333333333 113.06666666667 332.8 108.8 320L64 192v-170.66666666667c0 -12.8 8.5333333333333 -21.333333333333 21.333333333333 -21.333333333333h21.333333333333c12.8 0 21.333333333333 8.5333333333333 21.333333333333 21.333333333333v21.333333333333h256v-21.333333333333c0 -12.8 8.5333333333333 -21.333333333333 21.333333333333 -21.333333333333h21.333333333333c12.8 0 21.333333333333 8.5333333333333 21.333333333333 21.333333333333v170.66666666667L403.2 320zM138.66666666667 106.66666666667C121.6 106.66666666667 106.66666666667 121.6 106.66666666667 138.66666666667S121.6 170.66666666667 138.66666666667 170.66666666667C155.73333333333 170.66666666667 170.66666666667 155.73333333333 170.66666666667 138.66666666667S155.73333333333 106.66666666667 138.66666666667 106.66666666667zM373.33333333333 106.66666666667c-17.066666666667 0 -32 14.933333333333 -32 32s14.933333333333 32 32 32c17.066666666667 0 32 -14.933333333333 32 -32S390.4 106.66666666667 373.33333333333 106.66666666667zM106.66666666667 213.33333333333l32 96h234.66666666667L405.33333333333 213.33333333333H106.66666666667z"/><glyph unicode="&#xE040;" glyph-name="car147" horiz-adv-x="512" d="M106.66666666667 117.33333333333C106.66666666667 139.78207466667 116.21792533333 149.33333333333 138.66666666667 149.33333333333C139.78207466667 149.33333333333 149.33333333333 139.78207466667 149.33333333333 117.33333333333C149.33333333333 116.21792533333 139.78207466667 106.66666666667 138.66666666667 106.66666666667C116.21792533333 106.66666666667 106.66666666667 116.21792533333 106.66666666667 117.33333333333ZM341.33333333333 117.33333333333C341.33333333333 139.78207466667 350.884592 149.33333333333 373.33333333333 149.33333333333C374.44874133333 149.33333333333 384 139.78207466667 384 117.33333333333C384 116.21792533333 374.44874133333 106.66666666667 373.33333333333 106.66666666667C350.884592 106.66666666667 341.33333333333 116.21792533333 341.33333333333 117.33333333333ZM403.2 298.66666666667c-4.2666666666667 12.8 -17.066666666667 21.333333333333 -29.866666666667 21.333333333333H341.33333333333H128V362.66666666667L64 298.66666666667l42.666666666667 -42.666666666667l21.333333333333 -21.333333333333V277.33333333333h249.6l27.733333333333 -85.333333333333H64v-192c0 -12.8 8.5333333333333 -21.333333333333 21.333333333333 -21.333333333333h21.333333333333c12.8 0 21.333333333333 8.5333333333333 21.333333333333 21.333333333333v21.333333333333h256v-21.333333333333c0 -12.8 8.5333333333333 -21.333333333333 21.333333333333 -21.333333333333h21.333333333333c12.8 0 21.333333333333 8.5333333333333 21.333333333333 21.333333333333v170.66666666667L403.2 298.66666666667zM138.66666666667 85.333333333333C121.6 85.333333333333 106.66666666667 100.26666666667 106.66666666667 117.33333333333S121.6 149.33333333333 138.66666666667 149.33333333333C155.73333333333 149.33333333333 170.66666666667 134.4 170.66666666667 117.33333333333S155.73333333333 85.333333333333 138.66666666667 85.333333333333zM373.33333333333 85.333333333333c-17.066666666667 0 -32 14.933333333333 -32 32s14.933333333333 32 32 32c17.066666666667 0 32 -14.933333333333 32 -32S390.4 85.333333333333 373.33333333333 85.333333333333zM341.33333333333 448v-42.666666666667H170.66666666667v-42.666666666667h170.66666666667v-42.666666666667l64 64L341.33333333333 448z"/><glyph unicode="&#xE041;" glyph-name="cell10" horiz-adv-x="512" d="M42.666666666667 -21.333333333333L469.33333333333 -21.333333333333L469.33333333333 405.33333333333Z"/><glyph unicode="&#xE042;" glyph-name="cell11" horiz-adv-x="512" d="M0 128h42.666666666667V256H0V128zM64 85.333333333333h42.666666666667V298.66666666667H64V85.333333333333zM469.33333333333 256v-128h42.666666666667V256H469.33333333333zM405.33333333333 85.333333333333h42.666666666667V298.66666666667h-42.666666666667V85.333333333333zM352 384h-192C142.93333333333 384 128 369.06666666667 128 352v-320C128 14.933333333333 142.93333333333 0 160 0h192c17.066666666667 0 32 14.933333333333 32 32v320C384 369.06666666667 369.06666666667 384 352 384zM341.33333333333 42.666666666667H170.66666666667V341.33333333333h170.66666666667V42.666666666667z"/><glyph unicode="&#xE043;" glyph-name="cell12" horiz-adv-x="512" d="M362.66666666667 426.66666666667L149.33333333333 426.66666666667C125.86666666667 426.66666666667 106.66666666667 407.46666666667 106.66666666667 384v-384c0 -23.466666666667 19.2 -42.666666666667 42.666666666667 -42.666666666667h213.33333333333c23.466666666667 0 42.666666666667 19.2 42.666666666667 42.666666666667V384C405.33333333333 407.46666666667 386.13333333333 426.66666666667 362.66666666667 426.66666666667zM362.66666666667 42.666666666667H149.33333333333V341.33333333333h213.33333333333V42.666666666667z"/><glyph unicode="&#xE044;" glyph-name="change3" horiz-adv-x="512" d="M149.33333333333 -64h42.666666666667v42.666666666667H149.33333333333V-64zM234.66666666667 -64h42.666666666667v42.666666666667h-42.666666666667V-64zM277.33333333333 405.33333333333h-42.666666666667v-213.33333333333h42.666666666667V405.33333333333zM354.13333333333 354.13333333333l-29.866666666667 -29.866666666667C358.4 300.8 384 260.26666666667 384 213.33333333333c0 -70.4 -57.6 -128 -128 -128c-70.4 0 -128 57.6 -128 128c0 46.933333333333 25.6 87.466666666667 61.866666666667 108.8L157.86666666667 354.13333333333C115.2 322.13333333333 85.333333333333 270.93333333333 85.333333333333 213.33333333333c0 -93.866666666667 76.8 -170.66666666667 170.66666666667 -170.66666666667c93.866666666667 0 170.66666666667 76.8 170.66666666667 170.66666666667C426.66666666667 270.93333333333 396.8 322.13333333333 354.13333333333 354.13333333333zM320 -64h42.666666666667v42.666666666667h-42.666666666667V-64z"/><glyph unicode="&#xE045;" glyph-name="chat75" horiz-adv-x="512" d="M448 320h-42.666666666667v-192H128v-42.666666666667c0 -12.8 8.5333333333333 -21.333333333333 21.333333333333 -21.333333333333h234.66666666667l85.333333333333 -85.333333333333V298.66666666667C469.33333333333 311.46666666667 460.8 320 448 320zM362.66666666667 192V384c0 12.8 -8.5333333333333 21.333333333333 -21.333333333333 21.333333333333H64C51.2 405.33333333333 42.666666666667 396.8 42.666666666667 384v-298.66666666667l85.333333333333 85.333333333333h213.33333333333C354.13333333333 170.66666666667 362.66666666667 179.2 362.66666666667 192z"/><glyph unicode="&#xE046;" glyph-name="chat76" horiz-adv-x="512" d="M426.66666666667 405.33333333333H85.333333333333C61.866666666667 405.33333333333 42.666666666667 386.13333333333 42.666666666667 362.66666666667l0 -384l85.333333333333 85.333333333333h298.66666666667c23.466666666667 0 42.666666666667 19.2 42.666666666667 42.666666666667V362.66666666667C469.33333333333 386.13333333333 450.13333333333 405.33333333333 426.66666666667 405.33333333333zM128 256h256v-42.666666666667H128V256zM298.66666666667 149.33333333333H128v42.666666666667h170.66666666667V149.33333333333zM384 277.33333333333H128V320h256V277.33333333333z"/><glyph unicode="&#xE047;" glyph-name="check51" horiz-adv-x="512" d="M168.53333333333 232.53333333333l-29.866666666667 -29.866666666667L234.66666666667 106.66666666667L448 320l-29.866666666667 29.866666666667L234.66666666667 166.4L168.53333333333 232.53333333333zM405.33333333333 42.666666666667L106.66666666667 42.666666666667V341.33333333333h213.33333333333V384H106.66666666667C83.2 384 64 364.8 64 341.33333333333v-298.66666666667c0 -23.466666666667 19.2 -42.666666666667 42.666666666667 -42.666666666667h298.66666666667c23.466666666667 0 42.666666666667 19.2 42.666666666667 42.666666666667v170.66666666667h-42.666666666667V42.666666666667z"/><glyph unicode="&#xE048;" glyph-name="check52" horiz-adv-x="512" d="M192 102.4L102.4 192L72.533333333333 162.13333333333L192 42.666666666667L448 298.66666666667L418.13333333333 328.53333333333Z"/><glyph unicode="&#xE049;" glyph-name="chemistry17" horiz-adv-x="512" d="M405.33333333333 362.66666666667L320 362.66666666667L151.46666666667 93.866666666667L96 192L192 362.66666666667L106.66666666667 362.66666666667L10.666666666667 192L106.66666666667 21.333333333333L192 21.333333333333L360.53333333333 290.13333333333L416 192L320 21.333333333333L405.33333333333 21.333333333333L501.33333333333 192Z"/><glyph unicode="&#xE04A;" glyph-name="circle107" horiz-adv-x="512" d="M256 405.33333333333C138.66666666667 405.33333333333 42.666666666667 309.33333333333 42.666666666667 192s96 -213.33333333333 213.33333333333 -213.33333333333c117.33333333333 0 213.33333333333 96 213.33333333333 213.33333333333S373.33333333333 405.33333333333 256 405.33333333333zM256 21.333333333333c-93.866666666667 0 -170.66666666667 76.8 -170.66666666667 170.66666666667s76.8 170.66666666667 170.66666666667 170.66666666667c93.866666666667 0 170.66666666667 -76.8 170.66666666667 -170.66666666667S349.86666666667 21.333333333333 256 21.333333333333z"/><glyph unicode="&#xE04B;" glyph-name="circle108" horiz-adv-x="512" d="M256 405.33333333333C138.66666666667 405.33333333333 42.666666666667 309.33333333333 42.666666666667 192c0 -117.33333333333 96 -213.33333333333 213.33333333333 -213.33333333333c117.33333333333 0 213.33333333333 96 213.33333333333 213.33333333333C469.33333333333 309.33333333333 373.33333333333 405.33333333333 256 405.33333333333zM213.33333333333 85.333333333333l-106.66666666667 106.66666666667l29.866666666667 29.866666666667l76.8 -76.8l162.13333333333 162.13333333333L405.33333333333 277.33333333333L213.33333333333 85.333333333333z"/><glyph unicode="&#xE04C;" glyph-name="circles23" horiz-adv-x="512" d="M256 234.66666666667c46.933333333333 0 85.333333333333 38.4 85.333333333333 85.333333333333c0 46.933333333333 -38.4 85.333333333333 -85.333333333333 85.333333333333C209.06666666667 405.33333333333 170.66666666667 366.93333333333 170.66666666667 320C170.66666666667 273.06666666667 209.06666666667 234.66666666667 256 234.66666666667zM256 362.66666666667c23.466666666667 0 42.666666666667 -19.2 42.666666666667 -42.666666666667c0 -23.466666666667 -19.2 -42.666666666667 -42.666666666667 -42.666666666667c-23.466666666667 0 -42.666666666667 19.2 -42.666666666667 42.666666666667C213.33333333333 343.46666666667 232.53333333333 362.66666666667 256 362.66666666667zM128 170.66666666667c-46.933333333333 0 -85.333333333333 -38.4 -85.333333333333 -85.333333333333c0 -46.933333333333 38.4 -85.333333333333 85.333333333333 -85.333333333333c46.933333333333 0 85.333333333333 38.4 85.333333333333 85.333333333333C213.33333333333 132.26666666667 174.93333333333 170.66666666667 128 170.66666666667zM128 42.666666666667c-23.466666666667 0 -42.666666666667 19.2 -42.666666666667 42.666666666667c0 23.466666666667 19.2 42.666666666667 42.666666666667 42.666666666667c23.466666666667 0 42.666666666667 -19.2 42.666666666667 -42.666666666667C170.66666666667 61.866666666667 151.46666666667 42.666666666667 128 42.666666666667zM256 211.2c-21.333333333333 0 -40.533333333333 -19.2 -40.533333333333 -40.533333333333s19.2 -40.533333333333 40.533333333333 -40.533333333333c21.333333333333 0 40.533333333333 19.2 40.533333333333 40.533333333333S277.33333333333 211.2 256 211.2zM384 170.66666666667c-46.933333333333 0 -85.333333333333 -38.4 -85.333333333333 -85.333333333333c0 -46.933333333333 38.4 -85.333333333333 85.333333333333 -85.333333333333c46.933333333333 0 85.333333333333 38.4 85.333333333333 85.333333333333C469.33333333333 132.26666666667 430.93333333333 170.66666666667 384 170.66666666667zM384 42.666666666667c-23.466666666667 0 -42.666666666667 19.2 -42.666666666667 42.666666666667c0 23.466666666667 19.2 42.666666666667 42.666666666667 42.666666666667c23.466666666667 0 42.666666666667 -19.2 42.666666666667 -42.666666666667C426.66666666667 61.866666666667 407.46666666667 42.666666666667 384 42.666666666667z"/><glyph unicode="&#xE04D;" glyph-name="circumference" horiz-adv-x="512" d="M256 405.33333333333C138.66666666667 405.33333333333 42.666666666667 309.33333333333 42.666666666667 192s96 -213.33333333333 213.33333333333 -213.33333333333c117.33333333333 0 213.33333333333 96 213.33333333333 213.33333333333S373.33333333333 405.33333333333 256 405.33333333333zM256 21.333333333333c-93.866666666667 0 -170.66666666667 76.8 -170.66666666667 170.66666666667s76.8 170.66666666667 170.66666666667 170.66666666667c93.866666666667 0 170.66666666667 -76.8 170.66666666667 -170.66666666667S349.86666666667 21.333333333333 256 21.333333333333z"/><glyph unicode="&#xE04E;" glyph-name="city24" horiz-adv-x="512" d="M320 213.33333333333V341.33333333333l-64 64L192 341.33333333333v-42.666666666667H64v-298.66666666667h384V213.33333333333H320zM149.33333333333 42.666666666667H106.66666666667v42.666666666667h42.666666666667V42.666666666667zM149.33333333333 128H106.66666666667v42.666666666667h42.666666666667V128zM149.33333333333 213.33333333333H106.66666666667V256h42.666666666667V213.33333333333zM277.33333333333 42.666666666667h-42.666666666667v42.666666666667h42.666666666667V42.666666666667zM277.33333333333 128h-42.666666666667v42.666666666667h42.666666666667V128zM277.33333333333 213.33333333333h-42.666666666667V256h42.666666666667V213.33333333333zM277.33333333333 298.66666666667h-42.666666666667V341.33333333333h42.666666666667V298.66666666667zM405.33333333333 42.666666666667h-42.666666666667v42.666666666667h42.666666666667V42.666666666667zM405.33333333333 128h-42.666666666667v42.666666666667h42.666666666667V128z"/><glyph unicode="&#xE04F;" glyph-name="clapperboard4" horiz-adv-x="512" d="M384 362.66666666667l42.666666666667 -85.333333333333h-64l-42.666666666667 85.333333333333h-42.666666666667l42.666666666667 -85.333333333333h-64l-42.666666666667 85.333333333333H170.66666666667l42.666666666667 -85.333333333333H149.33333333333L106.66666666667 362.66666666667H85.333333333333C61.866666666667 362.66666666667 42.666666666667 343.46666666667 42.666666666667 320l0 -256c0 -23.466666666667 19.2 -42.666666666667 42.666666666667 -42.666666666667h341.33333333333c23.466666666667 0 42.666666666667 19.2 42.666666666667 42.666666666667V362.66666666667H384z"/><glyph unicode="&#xE050;" glyph-name="clapperboard5" horiz-adv-x="512" d="M384 362.66666666667l42.666666666667 -85.333333333333h-64l-42.666666666667 85.333333333333h-42.666666666667l42.666666666667 -85.333333333333h-64l-42.666666666667 85.333333333333H170.66666666667l42.666666666667 -85.333333333333H149.33333333333L106.66666666667 362.66666666667H85.333333333333C61.866666666667 362.66666666667 42.666666666667 343.46666666667 42.666666666667 320l0 -256c0 -23.466666666667 19.2 -42.666666666667 42.666666666667 -42.666666666667h341.33333333333c23.466666666667 0 42.666666666667 19.2 42.666666666667 42.666666666667V362.66666666667H384z"/><glyph unicode="&#xE051;" glyph-name="clear5" horiz-adv-x="512" d="M405.33333333333 311.46666666667L375.46666666667 341.33333333333L256 221.86666666667L136.53333333333 341.33333333333L106.66666666667 311.46666666667L226.13333333333 192L106.66666666667 72.533333333333L136.53333333333 42.666666666667L256 162.13333333333L375.46666666667 42.666666666667L405.33333333333 72.533333333333L285.86666666667 192Z"/><glyph unicode="&#xE052;" glyph-name="clipboard99" horiz-adv-x="512" d="M405.33333333333 405.33333333333h-89.6c-8.5333333333333 25.6 -32 42.666666666667 -59.733333333333 42.666666666667c-27.733333333333 0 -51.2 -17.066666666667 -59.733333333333 -42.666666666667H106.66666666667C83.2 405.33333333333 64 386.13333333333 64 362.66666666667v-341.33333333333c0 -23.466666666667 19.2 -42.666666666667 42.666666666667 -42.666666666667h298.66666666667c23.466666666667 0 42.666666666667 19.2 42.666666666667 42.666666666667V362.66666666667C448 386.13333333333 428.8 405.33333333333 405.33333333333 405.33333333333zM256 405.33333333333c12.8 0 21.333333333333 -8.5333333333333 21.333333333333 -21.333333333333s-8.5333333333333 -21.333333333333 -21.333333333333 -21.333333333333c-12.8 0 -21.333333333333 8.5333333333333 -21.333333333333 21.333333333333S243.2 405.33333333333 256 405.33333333333zM405.33333333333 21.333333333333H106.66666666667V362.66666666667h42.666666666667v-64h213.33333333333V362.66666666667h42.666666666667V21.333333333333z"/><glyph unicode="&#xE053;" glyph-name="clock100" horiz-adv-x="512" d="M256 405.33333333333C138.66666666667 405.33333333333 42.666666666667 309.33333333333 42.666666666667 192s96 -213.33333333333 213.33333333333 -213.33333333333c117.33333333333 0 213.33333333333 96 213.33333333333 213.33333333333S373.33333333333 405.33333333333 256 405.33333333333zM256 21.333333333333c-93.866666666667 0 -170.66666666667 76.8 -170.66666666667 170.66666666667s76.8 170.66666666667 170.66666666667 170.66666666667c93.866666666667 0 170.66666666667 -76.8 170.66666666667 -170.66666666667S349.86666666667 21.333333333333 256 21.333333333333zM266.66666666667 298.66666666667L234.66666666667 298.66666666667L234.66666666667 170.66666666667L345.6 102.4L362.66666666667 130.13333333333L266.66666666667 187.73333333333Z"/><glyph unicode="&#xE054;" glyph-name="close47" horiz-adv-x="512" d="M405.33333333333 311.46666666667L375.46666666667 341.33333333333L256 221.86666666667L136.53333333333 341.33333333333L106.66666666667 311.46666666667L226.13333333333 192L106.66666666667 72.533333333333L136.53333333333 42.666666666667L256 162.13333333333L375.46666666667 42.666666666667L405.33333333333 72.533333333333L285.86666666667 192Z"/><glyph unicode="&#xE055;" glyph-name="closed64" horiz-adv-x="512" d="M405.33333333333 362.66666666667H106.66666666667C83.2 362.66666666667 64 343.46666666667 64 320v-256c0 -23.466666666667 19.2 -42.666666666667 42.666666666667 -42.666666666667h298.66666666667c23.466666666667 0 42.666666666667 19.2 42.666666666667 42.666666666667V320C448 343.46666666667 428.8 362.66666666667 405.33333333333 362.66666666667zM234.66666666667 213.33333333333H202.66666666667v10.666666666667h-42.666666666667v-64h42.666666666667V170.66666666667H234.66666666667v-21.333333333333c0 -12.8 -8.5333333333333 -21.333333333333 -21.333333333333 -21.333333333333H149.33333333333c-12.8 0 -21.333333333333 8.5333333333333 -21.333333333333 21.333333333333v85.333333333333c0 12.8 8.5333333333333 21.333333333333 21.333333333333 21.333333333333h64c12.8 0 21.333333333333 -8.5333333333333 21.333333333333 -21.333333333333V213.33333333333zM384 213.33333333333h-32v10.666666666667h-42.666666666667v-64h42.666666666667V170.66666666667H384v-21.333333333333c0 -12.8 -8.5333333333333 -21.333333333333 -21.333333333333 -21.333333333333h-64c-12.8 0 -21.333333333333 8.5333333333333 -21.333333333333 21.333333333333v85.333333333333c0 12.8 8.5333333333333 21.333333333333 21.333333333333 21.333333333333h64c12.8 0 21.333333333333 -8.5333333333333 21.333333333333 -21.333333333333V213.33333333333z"/><glyph unicode="&#xE056;" glyph-name="cloud302" horiz-adv-x="512" d="M413.86666666667 234.66666666667c-14.933333333333 72.533333333333 -78.933333333333 128 -157.86666666667 128C194.13333333333 362.66666666667 140.8 328.53333333333 115.2 277.33333333333C49.066666666667 268.8 0 215.46666666667 0 149.33333333333c0 -70.4 57.6 -128 128 -128h277.33333333333c59.733333333333 0 106.66666666667 46.933333333333 106.66666666667 106.66666666667C512 183.46666666667 467.2 230.4 413.86666666667 234.66666666667zM362.66666666667 170.66666666667l-106.66666666667 -106.66666666667l-106.66666666667 106.66666666667h64V256h85.333333333333v-85.333333333333H362.66666666667z"/><glyph unicode="&#xE057;" glyph-name="cloud303" horiz-adv-x="512" d="M256 405.33333333333C138.66666666667 405.33333333333 42.666666666667 309.33333333333 42.666666666667 192s96 -213.33333333333 213.33333333333 -213.33333333333c117.33333333333 0 213.33333333333 96 213.33333333333 213.33333333333S373.33333333333 405.33333333333 256 405.33333333333zM362.66666666667 128H170.66666666667H160C130.13333333333 128 106.66666666667 151.46666666667 106.66666666667 181.33333333333S130.13333333333 234.66666666667 160 234.66666666667h12.8c8.5333333333333 36.266666666667 42.666666666667 64 83.2 64c46.933333333333 0 85.333333333333 -38.4 85.333333333333 -85.333333333333h21.333333333333c23.466666666667 0 42.666666666667 -19.2 42.666666666667 -42.666666666667S386.13333333333 128 362.66666666667 128z"/><glyph unicode="&#xE058;" glyph-name="cloud304" horiz-adv-x="512" d="M413.86666666667 234.66666666667c-14.933333333333 72.533333333333 -78.933333333333 128 -157.86666666667 128C194.13333333333 362.66666666667 140.8 328.53333333333 115.2 277.33333333333C49.066666666667 268.8 0 215.46666666667 0 149.33333333333c0 -70.4 57.6 -128 128 -128h277.33333333333c59.733333333333 0 106.66666666667 46.933333333333 106.66666666667 106.66666666667C512 183.46666666667 467.2 230.4 413.86666666667 234.66666666667zM405.33333333333 64H128c-46.933333333333 0 -85.333333333333 38.4 -85.333333333333 85.333333333333c0 46.933333333333 38.4 85.333333333333 85.333333333333 85.333333333333h14.933333333333C157.86666666667 283.73333333333 202.66666666667 320 256 320c64 0 117.33333333333 -53.333333333333 117.33333333333 -117.33333333333V192H405.33333333333c36.266666666667 0 64 -27.733333333333 64 -64S441.6 64 405.33333333333 64z"/><glyph unicode="&#xE059;" glyph-name="cloud305" horiz-adv-x="512" d="M413.86666666667 234.66666666667c-14.933333333333 72.533333333333 -78.933333333333 128 -157.86666666667 128C194.13333333333 362.66666666667 140.8 328.53333333333 115.2 277.33333333333C49.066666666667 268.8 0 215.46666666667 0 149.33333333333c0 -70.4 57.6 -128 128 -128h277.33333333333c59.733333333333 0 106.66666666667 46.933333333333 106.66666666667 106.66666666667C512 183.46666666667 467.2 230.4 413.86666666667 234.66666666667zM298.66666666667 170.66666666667v-85.333333333333h-85.333333333333v85.333333333333H149.33333333333l106.66666666667 106.66666666667l106.66666666667 -106.66666666667H298.66666666667z"/><glyph unicode="&#xE05A;" glyph-name="cloud306" horiz-adv-x="512" d="M413.86666666667 234.66666666667c-14.933333333333 72.533333333333 -78.933333333333 128 -157.86666666667 128C194.13333333333 362.66666666667 140.8 328.53333333333 115.2 277.33333333333C49.066666666667 268.8 0 215.46666666667 0 149.33333333333c0 -70.4 57.6 -128 128 -128h277.33333333333c59.733333333333 0 106.66666666667 46.933333333333 106.66666666667 106.66666666667C512 183.46666666667 467.2 230.4 413.86666666667 234.66666666667zM213.33333333333 85.333333333333l-74.666666666667 74.666666666667l29.866666666667 29.866666666667l44.8 -44.8L324.26666666667 256l29.866666666667 -29.866666666667L213.33333333333 85.333333333333z"/><glyph unicode="&#xE05B;" glyph-name="cloud307" horiz-adv-x="512" d="M413.86666666667 234.66666666667c-14.933333333333 72.533333333333 -78.933333333333 128 -157.86666666667 128c-32 0 -61.866666666667 -8.5333333333333 -85.333333333333 -25.6l32 -32C217.6 315.73333333333 236.8 320 256 320c64 0 117.33333333333 -53.333333333333 117.33333333333 -117.33333333333V192H405.33333333333c36.266666666667 0 64 -27.733333333333 64 -64c0 -23.466666666667 -12.8 -44.8 -34.133333333333 -55.466666666667l32 -32c27.733333333333 19.2 44.8 51.2 44.8 87.466666666667C512 183.46666666667 467.2 230.4 413.86666666667 234.66666666667zM64 334.93333333333L123.73333333333 277.33333333333C55.466666666667 273.06666666667 0 217.6 0 149.33333333333c0 -70.4 57.6 -128 128 -128h249.6l42.666666666667 -42.666666666667l27.733333333333 27.733333333333L91.733333333333 362.66666666667L64 334.93333333333zM164.26666666667 234.66666666667l170.66666666667 -170.66666666667H128c-46.933333333333 0 -85.333333333333 38.4 -85.333333333333 85.333333333333c0 46.933333333333 38.4 85.333333333333 85.333333333333 85.333333333333H164.26666666667z"/><glyph unicode="&#xE05C;" glyph-name="compass106" horiz-adv-x="512" d="M256 215.46666666667c-12.8 0 -23.466666666667 -10.666666666667 -23.466666666667 -23.466666666667s10.666666666667 -23.466666666667 23.466666666667 -23.466666666667c12.8 0 23.466666666667 10.666666666667 23.466666666667 23.466666666667S268.8 215.46666666667 256 215.46666666667zM256 405.33333333333C138.66666666667 405.33333333333 42.666666666667 309.33333333333 42.666666666667 192c0 -117.33333333333 96 -213.33333333333 213.33333333333 -213.33333333333c117.33333333333 0 213.33333333333 96 213.33333333333 213.33333333333C469.33333333333 309.33333333333 373.33333333333 405.33333333333 256 405.33333333333zM302.93333333333 145.06666666667L128 64l81.066666666667 174.93333333333L384 320L302.93333333333 145.06666666667z"/><glyph unicode="&#xE05D;" glyph-name="connection21" horiz-adv-x="512" d="M405.33333333333 384h-21.333333333333V426.66666666667h-42.666666666667v-42.666666666667H170.66666666667V426.66666666667H128v-42.666666666667H106.66666666667C83.2 384 64 364.8 64 341.33333333333l0 -298.66666666667c0 -23.466666666667 19.2 -42.666666666667 42.666666666667 -42.666666666667h298.66666666667c23.466666666667 0 42.666666666667 19.2 42.666666666667 42.666666666667V341.33333333333C448 364.8 428.8 384 405.33333333333 384zM405.33333333333 42.666666666667H106.66666666667V277.33333333333h298.66666666667V42.666666666667zM149.33333333333 234.66666666667l106.66666666667 0l0 -106.66666666667l-106.66666666667 0Z"/><glyph unicode="&#xE05E;" glyph-name="copy31" horiz-adv-x="512" d="M341.33333333333 426.66666666667H85.333333333333C61.866666666667 426.66666666667 42.666666666667 407.46666666667 42.666666666667 384v-298.66666666667h42.666666666667V384h256V426.66666666667zM405.33333333333 341.33333333333H170.66666666667C147.2 341.33333333333 128 322.13333333333 128 298.66666666667v-298.66666666667c0 -23.466666666667 19.2 -42.666666666667 42.666666666667 -42.666666666667h234.66666666667c23.466666666667 0 42.666666666667 19.2 42.666666666667 42.666666666667V298.66666666667C448 322.13333333333 428.8 341.33333333333 405.33333333333 341.33333333333zM405.33333333333 0H170.66666666667V298.66666666667h234.66666666667V0z"/><glyph unicode="&#xE05F;" glyph-name="create2" horiz-adv-x="512" d="M170.66666666667 234.66666666667H106.66666666667V298.66666666667H64v-64H0v-42.666666666667h64v-64h42.666666666667v64h64V234.66666666667zM384 213.33333333333c36.266666666667 0 64 27.733333333333 64 64c0 36.266666666667 -27.733333333333 64 -64 64c-6.4 0 -12.8 -2.1333333333333 -19.2 -2.1333333333333C377.6 320 384 300.8 384 277.33333333333s-6.4 -42.666666666667 -19.2 -61.866666666667C371.2 215.46666666667 377.6 213.33333333333 384 213.33333333333zM277.33333333333 213.33333333333c36.266666666667 0 64 27.733333333333 64 64c0 36.266666666667 -27.733333333333 64 -64 64c-36.266666666667 0 -64 -27.733333333333 -64 -64C213.33333333333 241.06666666667 241.06666666667 213.33333333333 277.33333333333 213.33333333333zM418.13333333333 166.4c17.066666666667 -14.933333333333 29.866666666667 -36.266666666667 29.866666666667 -59.733333333333v-42.666666666667h64v42.666666666667C512 138.66666666667 460.8 160 418.13333333333 166.4zM277.33333333333 170.66666666667c-42.666666666667 0 -128 -21.333333333333 -128 -64v-42.666666666667h256v42.666666666667C405.33333333333 149.33333333333 320 170.66666666667 277.33333333333 170.66666666667z"/><glyph unicode="&#xE060;" glyph-name="create3" horiz-adv-x="512" d="M64 81.066666666667V0h81.066666666667L379.73333333333 236.8l-81.066666666667 81.066666666667L64 81.066666666667zM441.6 298.66666666667c8.5333333333333 8.5333333333333 8.5333333333333 21.333333333333 0 29.866666666667l-49.066666666667 49.066666666667c-8.5333333333333 8.5333333333333 -21.333333333333 8.5333333333333 -29.866666666667 0l-38.4 -38.4l81.066666666667 -81.066666666667L441.6 298.66666666667z"/><glyph unicode="&#xE061;" glyph-name="credit98" horiz-adv-x="512" d="M426.66666666667 362.66666666667H85.333333333333C61.866666666667 362.66666666667 42.666666666667 343.46666666667 42.666666666667 320v-256c0 -23.466666666667 19.2 -42.666666666667 42.666666666667 -42.666666666667h341.33333333333c23.466666666667 0 42.666666666667 19.2 42.666666666667 42.666666666667V320C469.33333333333 343.46666666667 450.13333333333 362.66666666667 426.66666666667 362.66666666667zM426.66666666667 64H85.333333333333v128h341.33333333333V64zM426.66666666667 277.33333333333H85.333333333333V320h341.33333333333V277.33333333333z"/><glyph unicode="&#xE062;" glyph-name="crop13" horiz-adv-x="512" d="M64 341.33333333333v-85.333333333333h42.666666666667V341.33333333333h85.333333333333V384H106.66666666667C83.2 384 64 364.8 64 341.33333333333zM106.66666666667 128H64v-85.333333333333c0 -23.466666666667 19.2 -42.666666666667 42.666666666667 -42.666666666667h85.333333333333v42.666666666667H106.66666666667V128zM405.33333333333 42.666666666667h-85.333333333333v-42.666666666667h85.333333333333c23.466666666667 0 42.666666666667 19.2 42.666666666667 42.666666666667v85.333333333333h-42.666666666667V42.666666666667zM405.33333333333 384h-85.333333333333v-42.666666666667h85.333333333333v-85.333333333333h42.666666666667V341.33333333333C448 364.8 428.8 384 405.33333333333 384z"/><glyph unicode="&#xE063;" glyph-name="crop14" horiz-adv-x="512" d="M362.66666666667 128h42.666666666667V298.66666666667c0 23.466666666667 -19.2 42.666666666667 -42.666666666667 42.666666666667H192v-42.666666666667h170.66666666667V128zM149.33333333333 85.333333333333V426.66666666667H106.66666666667v-85.333333333333H21.333333333333v-42.666666666667h85.333333333333v-213.33333333333c0 -23.466666666667 19.2 -42.666666666667 42.666666666667 -42.666666666667h213.33333333333v-85.333333333333h42.666666666667v85.333333333333h85.333333333333v42.666666666667H149.33333333333z"/><glyph unicode="&#xE064;" glyph-name="cut23" horiz-adv-x="512" d="M213.33333333333 320c0 46.933333333333 -38.4 85.333333333333 -85.333333333333 85.333333333333S42.666666666667 366.93333333333 42.666666666667 320c0 -46.933333333333 38.4 -85.333333333333 85.333333333333 -85.333333333333c12.8 0 23.466666666667 2.1333333333333 34.133333333333 8.5333333333333L213.33333333333 192l-51.2 -51.2C151.46666666667 147.2 140.8 149.33333333333 128 149.33333333333c-46.933333333333 0 -85.333333333333 -38.4 -85.333333333333 -85.333333333333c0 -46.933333333333 38.4 -85.333333333333 85.333333333333 -85.333333333333s85.333333333333 38.4 85.333333333333 85.333333333333c0 12.8 -2.1333333333333 23.466666666667 -8.5333333333333 34.133333333333L256 149.33333333333l149.33333333333 -149.33333333333h85.333333333333L204.8 285.86666666667C211.2 296.53333333333 213.33333333333 307.2 213.33333333333 320zM128 277.33333333333C104.53333333333 277.33333333333 85.333333333333 296.53333333333 85.333333333333 320s19.2 42.666666666667 42.666666666667 42.666666666667c23.466666666667 0 42.666666666667 -19.2 42.666666666667 -42.666666666667S151.46666666667 277.33333333333 128 277.33333333333zM128 21.333333333333c-23.466666666667 0 -42.666666666667 19.2 -42.666666666667 42.666666666667s19.2 42.666666666667 42.666666666667 42.666666666667c23.466666666667 0 42.666666666667 -19.2 42.666666666667 -42.666666666667S151.46666666667 21.333333333333 128 21.333333333333zM256 202.66666666667c6.4 0 10.666666666667 -4.2666666666667 10.666666666667 -10.666666666667c0 -6.4 -4.2666666666667 -10.666666666667 -10.666666666667 -10.666666666667c-6.4 0 -10.666666666667 4.2666666666667 -10.666666666667 10.666666666667C245.33333333333 198.4 249.6 202.66666666667 256 202.66666666667zM490.66666666667 384h-85.333333333333l-128 -128l42.666666666667 -42.666666666667L490.66666666667 384z"/><glyph unicode="&#xE065;" glyph-name="dark55" horiz-adv-x="512" d="M413.86666666667 234.66666666667c-14.933333333333 72.533333333333 -78.933333333333 128 -157.86666666667 128C194.13333333333 362.66666666667 140.8 328.53333333333 115.2 277.33333333333C49.066666666667 268.8 0 215.46666666667 0 149.33333333333c0 -70.4 57.6 -128 128 -128h277.33333333333c59.733333333333 0 106.66666666667 46.933333333333 106.66666666667 106.66666666667C512 183.46666666667 467.2 230.4 413.86666666667 234.66666666667z"/><glyph unicode="&#xE066;" glyph-name="developer2" horiz-adv-x="512" d="M149.33333333333 341.33333333333h213.33333333333v-42.666666666667h42.666666666667V384c0 23.466666666667 -19.2 42.666666666667 -42.666666666667 42.666666666667L149.33333333333 426.66666666667C125.86666666667 426.66666666667 106.66666666667 407.46666666667 106.66666666667 384v-85.333333333333h42.666666666667V341.33333333333zM328.53333333333 93.866666666667L426.66666666667 192l-98.133333333333 98.133333333333L298.66666666667 260.26666666667l68.266666666667 -68.266666666667L298.66666666667 123.73333333333L328.53333333333 93.866666666667zM213.33333333333 123.73333333333L145.06666666667 192L213.33333333333 260.26666666667L183.46666666667 290.13333333333L85.333333333333 192l98.133333333333 -98.133333333333L213.33333333333 123.73333333333zM362.66666666667 42.666666666667H149.33333333333v42.666666666667H106.66666666667v-85.333333333333c0 -23.466666666667 19.2 -42.666666666667 42.666666666667 -42.666666666667h213.33333333333c23.466666666667 0 42.666666666667 19.2 42.666666666667 42.666666666667v85.333333333333h-42.666666666667V42.666666666667z"/><glyph unicode="&#xE067;" glyph-name="device4" horiz-adv-x="512" d="M42.666666666667 106.66666666667v-42.666666666667c59.733333333333 0 106.66666666667 -46.933333333333 106.66666666667 -106.66666666667h42.666666666667C192 40.533333333333 125.86666666667 106.66666666667 42.666666666667 106.66666666667zM42.666666666667 21.333333333333v-64h64C106.66666666667 -6.4 78.933333333333 21.333333333333 42.666666666667 21.333333333333zM42.666666666667 192v-42.666666666667c106.66666666667 0 192 -85.333333333333 192 -192h42.666666666667C277.33333333333 87.466666666667 172.8 192 42.666666666667 192zM362.66666666667 426.66666666667L149.33333333333 426.66666666667C125.86666666667 426.66666666667 106.66666666667 407.46666666667 106.66666666667 384v-157.86666666667c14.933333333333 -4.2666666666667 29.866666666667 -8.5333333333333 42.666666666667 -12.8V341.33333333333h213.33333333333v-277.33333333333h-64c10.666666666667 -25.6 17.066666666667 -55.466666666667 19.2 -85.333333333333H362.66666666667c23.466666666667 0 42.666666666667 19.2 42.666666666667 42.666666666667V384C405.33333333333 407.46666666667 386.13333333333 426.66666666667 362.66666666667 426.66666666667z"/><glyph unicode="&#xE068;" glyph-name="device5" horiz-adv-x="512" d="M21.333333333333 64v-64h64C85.333333333333 36.266666666667 57.6 64 21.333333333333 64zM21.333333333333 149.33333333333v-42.666666666667c59.733333333333 0 106.66666666667 -46.933333333333 106.66666666667 -106.66666666667h42.666666666667C170.66666666667 83.2 104.53333333333 149.33333333333 21.333333333333 149.33333333333zM405.33333333333 298.66666666667H106.66666666667v-34.133333333333c85.333333333333 -27.733333333333 151.46666666667 -93.866666666667 179.2 -179.2H405.33333333333V298.66666666667zM21.333333333333 234.66666666667v-42.666666666667c106.66666666667 0 192 -85.333333333333 192 -192h42.666666666667C256 130.13333333333 151.46666666667 234.66666666667 21.333333333333 234.66666666667zM448 384H64C40.533333333333 384 21.333333333333 364.8 21.333333333333 341.33333333333v-64h42.666666666667V341.33333333333h384v-298.66666666667h-149.33333333333v-42.666666666667h149.33333333333c23.466666666667 0 42.666666666667 19.2 42.666666666667 42.666666666667V341.33333333333C490.66666666667 364.8 471.46666666667 384 448 384z"/><glyph unicode="&#xE069;" glyph-name="disc30" horiz-adv-x="512" d="M426.66666666667 106.66666666667h42.666666666667v42.666666666667h-42.666666666667V106.66666666667zM426.66666666667 298.66666666667v-106.66666666667h42.666666666667V298.66666666667H426.66666666667zM213.33333333333 362.66666666667c-93.866666666667 0 -170.66666666667 -76.8 -170.66666666667 -170.66666666667c0 -93.866666666667 76.8 -170.66666666667 170.66666666667 -170.66666666667s170.66666666667 76.8 170.66666666667 170.66666666667C384 285.86666666667 307.2 362.66666666667 213.33333333333 362.66666666667zM213.33333333333 149.33333333333c-23.466666666667 0 -42.666666666667 19.2 -42.666666666667 42.666666666667s19.2 42.666666666667 42.666666666667 42.666666666667c23.466666666667 0 42.666666666667 -19.2 42.666666666667 -42.666666666667S236.8 149.33333333333 213.33333333333 149.33333333333z"/><glyph unicode="&#xE06A;" glyph-name="do10" horiz-adv-x="512" d="M256 405.33333333333C138.66666666667 405.33333333333 42.666666666667 309.33333333333 42.666666666667 192s96 -213.33333333333 213.33333333333 -213.33333333333c117.33333333333 0 213.33333333333 96 213.33333333333 213.33333333333S373.33333333333 405.33333333333 256 405.33333333333zM85.333333333333 192c0 93.866666666667 76.8 170.66666666667 170.66666666667 170.66666666667c38.4 0 74.666666666667 -12.8 104.53333333333 -36.266666666667L121.6 87.466666666667C98.133333333333 117.33333333333 85.333333333333 153.6 85.333333333333 192zM256 21.333333333333c-38.4 0 -74.666666666667 12.8 -104.53333333333 36.266666666667L390.4 296.53333333333C413.86666666667 266.66666666667 426.66666666667 230.4 426.66666666667 192C426.66666666667 98.133333333333 349.86666666667 21.333333333333 256 21.333333333333z"/><glyph unicode="&#xE06B;" glyph-name="double126" horiz-adv-x="512" d="M384 298.66666666667l-29.866666666667 29.866666666667l-134.4 -134.4l29.866666666667 -29.866666666667L384 298.66666666667zM473.6 328.53333333333L249.6 102.4L160 192l-29.866666666667 -29.866666666667l119.46666666667 -119.46666666667l256 256L473.6 328.53333333333zM8.5333333333333 162.13333333333L128 42.666666666667l29.866666666667 29.866666666667L38.4 192L8.5333333333333 162.13333333333z"/><glyph unicode="&#xE06C;" glyph-name="download162" horiz-adv-x="512" d="M362.66666666667 426.66666666667L149.33333333333 426.66666666667C125.86666666667 426.66666666667 106.66666666667 407.46666666667 106.66666666667 384v-384c0 -23.466666666667 19.2 -42.666666666667 42.666666666667 -42.666666666667h213.33333333333c23.466666666667 0 42.666666666667 19.2 42.666666666667 42.666666666667V384C405.33333333333 407.46666666667 386.13333333333 426.66666666667 362.66666666667 426.66666666667zM362.66666666667 42.666666666667H149.33333333333V341.33333333333h213.33333333333V42.666666666667zM341.33333333333 170.66666666667h-64V277.33333333333h-42.666666666667v-106.66666666667H170.66666666667l85.333333333333 -85.333333333333L341.33333333333 170.66666666667z"/><glyph unicode="&#xE06D;" glyph-name="download164" horiz-adv-x="512" d="M405.33333333333 256h-85.333333333333V384H192v-128H106.66666666667l149.33333333333 -149.33333333333L405.33333333333 256zM106.66666666667 64v-42.666666666667h298.66666666667v42.666666666667H106.66666666667z"/><glyph unicode="&#xE06E;" glyph-name="download166" horiz-adv-x="512" d="M437.33333333333 337.06666666667l-29.866666666667 36.266666666667C403.2 379.73333333333 394.6666666602E01E3AE7"/><glyph unicode="&#xE06F;" glyph-name="downwards" horiz-adv-x="512" d="M157.86666666667 281.6L256 183.46666666667L354.13333333333 281.6L384 251.73333333333L256 123.73333333333L128 251.73333333333Z"/><glyph unicode="&#xE070;" glyph-name="drafts" horiz-adv-x="512" d="M469.33333333333 277.33333333333c0 14.933333333333 -8.5333333333333 27.733333333333 -19.2 36.266666666667L256 426.66666666667L61.866666666667 313.6C51.2 305.06666666667 42.666666666667 292.26666666667 42.666666666667 277.33333333333v-213.33333333333c0 -23.466666666667 19.2 -42.666666666667 42.666666666667 -42.666666666667h341.33333333333c23.466666666667 0 42.666666666667 19.2 42.666666666667 42.666666666667L469.33333333333 277.33333333333zM256 170.66666666667L78.933333333333 281.6L256 384l177.06666666667 -102.4L256 170.66666666667z"/><glyph unicode="&#xE071;" glyph-name="drop25" horiz-adv-x="512" d="M149.33333333333 234.66666666667L256 128L362.66666666667 234.66666666667Z"/><glyph unicode="&#xE072;" glyph-name="drop26" horiz-adv-x="512" d="M256 405.33333333333C138.66666666667 405.33333333333 42.666666666667 309.33333333333 42.666666666667 192s96 -213.33333333333 213.33333333333 -213.33333333333c117.33333333333 0 213.33333333333 96 213.33333333333 213.33333333333S373.33333333333 405.33333333333 256 405.33333333333zM256 149.33333333333l-85.333333333333 85.333333333333h170.66666666667L256 149.33333333333z"/><glyph unicode="&#xE073;" glyph-name="drop27" horiz-adv-x="512" d="M149.33333333333 149.33333333333L256 256L362.66666666667 149.33333333333Z"/><glyph unicode="&#xE074;" glyph-name="earth205" horiz-adv-x="512" d="M256 405.33333333333C138.66666666667 405.33333333333 42.666666666667 309.33333333333 42.666666666667 192s96 -213.33333333333 213.33333333333 -213.33333333333c117.33333333333 0 213.33333333333 96 213.33333333333 213.33333333333S373.33333333333 405.33333333333 256 405.33333333333zM403.2 277.33333333333H341.33333333333c-6.4 27.733333333333 -17.066666666667 51.2 -29.866666666667 76.8C349.86666666667 339.2 384 313.6 403.2 277.33333333333zM256 362.66666666667c17.066666666667 -25.6 32 -53.333333333333 40.533333333333 -85.333333333333h-81.066666666667C224 307.2 238.93333333333 337.06666666667 256 362.66666666667zM91.733333333333 149.33333333333C87.466666666667 162.13333333333 85.333333333333 177.06666666667 85.333333333333 192s2.1333333333333 29.866666666667 6.4 42.666666666667h72.533333333333c-2.1333333333333 -14.933333333333 -2.1333333333333 -27.733333333333 -2.1333333333333 -42.666666666667s2.1333333333333 -27.733333333333 2.1333333333333 -42.666666666667H91.733333333333zM108.8 106.66666666667H170.66666666667c6.4 -27.733333333333 17.066666666667 -51.2 29.866666666667 -76.8C162.13333333333 44.8 128 70.4 108.8 106.66666666667zM170.66666666667 277.33333333333H108.8c21.333333333333 36.266666666667 53.333333333333 61.866666666667 91.733333333333 76.8C187.73333333333 328.53333333333 177.06666666667 305.06666666667 170.66666666667 277.33333333333zM256 21.333333333333c-17.066666666667 25.6 -32 53.333333333333 -40.533333333333 85.333333333333h81.066666666667C288 76.8 273.06666666667 46.933333333333 256 21.333333333333zM305.06666666667 149.33333333333H206.93333333333c-2.1333333333333 14.933333333333 -4.2666666666667 27.733333333333 -4.2666666666667 42.666666666667s2.1333333333333 27.733333333333 4.2666666666667 42.666666666667h100.26666666667c2.1333333333333 -14.933333333333 4.2666666666667 -27.733333333333 4.2666666666667 -42.666666666667S307.2 164.26666666667 305.06666666667 149.33333333333zM311.46666666667 29.866666666667c12.8 23.466666666667 23.466666666667 49.066666666667 29.866666666667 76.8h61.866666666667C384 70.4 349.86666666667 44.8 311.46666666667 29.866666666667zM349.86666666667 149.33333333333c2.1333333333333 14.933333333333 2.1333333333333 27.733333333333 2.1333333333333 42.666666666667s-2.1333333333333 27.733333333333 -2.1333333333333 42.666666666667h72.533333333333c4.2666666666667 -12.8 6.4 -27.733333333333 6.4 -42.666666666667s-2.1333333333333 -29.866666666667 -6.4 -42.666666666667H349.86666666667z"/><glyph unicode="&#xE075;" glyph-name="ellipsis1" horiz-adv-x="512" d="M128 234.66666666667c-23.466666666667 0 -42.666666666667 -19.2 -42.666666666667 -42.666666666667c0 -23.466666666667 19.2 -42.666666666667 42.666666666667 -42.666666666667c23.466666666667 0 42.666666666667 19.2 42.666666666667 42.666666666667C170.66666666667 215.46666666667 151.46666666667 234.66666666667 128 234.66666666667zM384 234.66666666667c-23.466666666667 0 -42.666666666667 -19.2 -42.666666666667 -42.666666666667c0 -23.466666666667 19.2 -42.666666666667 42.666666666667 -42.666666666667c23.466666666667 0 42.666666666667 19.2 42.666666666667 42.666666666667C426.66666666667 215.46666666667 407.46666666667 234.66666666667 384 234.66666666667zM256 234.66666666667c-23.466666666667 0 -42.666666666667 -19.2 -42.666666666667 -42.666666666667c0 -23.466666666667 19.2 -42.666666666667 42.666666666667 -42.666666666667c23.466666666667 0 42.666666666667 19.2 42.666666666667 42.666666666667C298.66666666667 215.46666666667 279.46666666667 234.66666666667 256 234.66666666667z"/><glyph unicode="&#xE076;" glyph-name="email107" horiz-adv-x="512" d="M405.33333333333 384H106.66666666667C83.2 384 64 364.8 64 341.33333333333l0 -298.66666666667c0 -23.466666666667 19.2 -42.666666666667 42.666666666667 -42.666666666667h298.66666666667c23.466666666667 0 42.666666666667 19.2 42.666666666667 42.666666666667V341.33333333333C448 364.8 428.8 384 405.33333333333 384zM405.33333333333 128h-85.333333333333c0 -36.266666666667 -27.733333333333 -64 -64 -64c-36.266666666667 0 -64 27.733333333333 -64 64H106.66666666667V341.33333333333h298.66666666667V128zM341.33333333333 234.66666666667h-42.666666666667V298.66666666667h-85.333333333333v-64H170.66666666667l85.333333333333 -85.333333333333L341.33333333333 234.66666666667z"/><glyph unicode="&#xE077;" glyph-name="emoticon117" horiz-adv-x="512" d="M330.66666666667 234.66666666667c17.066666666667 0 32 14.933333333333 32 32S347.73333333333 298.66666666667 330.66666666667 298.66666666667S298.66666666667 283.73333333333 298.66666666667 266.66666666667S313.6 234.66666666667 330.66666666667 234.66666666667zM181.33333333333 234.66666666667C198.4 234.66666666667 213.33333333333 249.6 213.33333333333 266.66666666667S198.4 298.66666666667 181.33333333333 298.66666666667C164.26666666667 298.66666666667 149.33333333333 283.73333333333 149.33333333333 266.66666666667S164.26666666667 234.66666666667 181.33333333333 234.66666666667zM256 85.333333333333c55.466666666667 0 102.4 36.266666666667 121.6 85.333333333333H134.4C153.6 121.6 200.53333333333 85.333333333333 256 85.333333333333zM256 426.66666666667C138.66666666667 426.66666666667 42.666666666667 330.66666666667 42.666666666667 213.33333333333c0 -117.33333333333 96 -213.33333333333 213.33333333333 -213.33333333333c117.33333333333 0 213.33333333333 96 213.33333333333 213.33333333333C469.33333333333 330.66666666667 373.33333333333 426.66666666667 256 426.66666666667zM256 42.666666666667c-93.866666666667 0 -170.66666666667 76.8 -170.66666666667 170.66666666667s76.8 170.66666666667 170.66666666667 170.66666666667c93.866666666667 0 170.66666666667 -76.8 170.66666666667 -170.66666666667S349.86666666667 42.666666666667 256 42.666666666667z"/><glyph unicode="&#xE078;" glyph-name="end3" horiz-adv-x="512" d="M256 256c-34.133333333333 0 -66.133333333333 -6.4 -98.133333333333 -14.933333333333l0 -66.133333333333c0 -8.5333333333333 -4.2666666666667 -14.933333333333 -12.8 -19.2c-21.333333333333 -10.666666666667 -40.533333333333 -23.466666666667 -57.6 -40.533333333333c-4.2666666666667 -4.2666666666667 -8.5333333333333 -6.4 -14.933333333333 -6.4c-6.4 0 -10.666666666667 2.1333333333333 -14.933333333333 6.4l-53.333333333333 53.333333333333C2.1333333333333 172.8 0 177.06666666667 0 183.46666666667c0 6.4 2.1333333333333 10.666666666667 6.4 14.933333333333C70.4 260.26666666667 160 298.66666666667 256 298.66666666667s185.6 -38.4 249.6 -100.26666666667c4.2666666666667 -4.2666666666667 6.4 -8.5333333333333 6.4 -14.933333333333c0 -6.4 -2.1333333333333 -10.666666666667 -6.4 -14.933333333333l-53.333333333333 -53.333333333333c-4.2666666666667 -4.2666666666667 -8.5333333333333 -6.4 -14.933333333333 -6.4c-6.4 0 -10.666666666667 2.1333333333333 -14.933333333333 6.4c-17.066666666667 14.933333333333 -36.266666666667 29.866666666667 -57.6 40.533333333333c-6.4 4.2666666666667 -12.8 10.666666666667 -12.8 19.2l0 66.133333333333C322.13333333333 249.6 290.13333333333 256 256 256z"/><glyph unicode="&#xE079;" glyph-name="enter5" horiz-adv-x="512" d="M405.33333333333 298.66666666667L405.33333333333 213.33333333333L123.73333333333 213.33333333333L200.53333333333 290.13333333333L170.66666666667 320L42.666666666667 192L170.66666666667 64L200.53333333333 93.866666666667L123.73333333333 170.66666666667L448 170.66666666667L448 298.66666666667Z"/><glyph unicode="&#xE07A;" glyph-name="exit13" horiz-adv-x="512" d="M215.46666666667 115.2l29.866666666667 -29.866666666667l106.66666666667 106.66666666667l-106.66666666667 106.66666666667l-29.866666666667 -29.866666666667l55.466666666667 -55.466666666667H64v-42.666666666667h206.93333333333L215.46666666667 115.2zM405.33333333333 384H106.66666666667C83.2 384 64 364.8 64 341.33333333333v-85.333333333333h42.666666666667V341.33333333333h298.66666666667v-298.66666666667H106.66666666667v85.333333333333H64v-85.333333333333c0 -23.466666666667 19.2 -42.666666666667 42.666666666667 -42.666666666667h298.66666666667c23.466666666667 0 42.666666666667 19.2 42.666666666667 42.666666666667V341.33333333333C448 364.8 428.8 384 405.33333333333 384z"/><glyph unicode="&#xE07B;" glyph-name="expand38" horiz-adv-x="512" d="M354.13333333333 264.53333333333L256 166.4L157.86666666667 264.53333333333L128 234.66666666667L256 106.66666666667L384 234.66666666667Z"/><glyph unicode="&#xE07C;" glyph-name="expand39" horiz-adv-x="512" d="M256 277.33333333333L128 149.33333333333L157.86666666667 119.46666666667L256 217.6L354.13333333333 119.46666666667L384 149.33333333333Z"/><glyph unicode="&#xE07D;" glyph-name="facebook56" horiz-adv-x="512" d="M426.66666666667 405.33333333333H85.333333333333C61.866666666667 405.33333333333 42.666666666667 386.13333333333 42.666666666667 362.66666666667l0 -341.33333333333c0 -23.466666666667 19.2 -42.666666666667 42.666666666667 -42.666666666667h341.33333333333c23.466666666667 0 42.666666666667 19.2 42.666666666667 42.666666666667V362.66666666667C469.33333333333 386.13333333333 450.13333333333 405.33333333333 426.66666666667 405.33333333333zM405.33333333333 362.66666666667v-64h-42.666666666667c-12.8 0 -21.333333333333 -8.5333333333333 -21.333333333333 -21.333333333333v-42.666666666667h64v-64h-64v-149.33333333333h-64v149.33333333333h-42.666666666667v64h42.666666666667V288C277.33333333333 328.53333333333 311.46666666667 362.66666666667 352 362.66666666667H405.33333333333z"/><glyph unicode="&#xE07E;" glyph-name="fast46" horiz-adv-x="512" d="M85.333333333333 64l181.33333333333 128L85.333333333333 320V64zM277.33333333333 320v-256l181.33333333333 128L277.33333333333 320z"/><glyph unicode="&#xE07F;" glyph-name="favorite21" horiz-adv-x="512" d="M256 -8.5333333333333L226.13333333333 21.333333333333C115.2 119.46666666667 42.666666666667 185.6 42.666666666667 266.66666666667C42.666666666667 332.8 93.866666666667 384 160 384c36.266666666667 0 72.533333333333 -17.066666666667 96 -44.8C279.46666666667 366.93333333333 315.73333333333 384 352 384C418.13333333333 384 469.33333333333 332.8 469.33333333333 266.66666666667c0 -81.066666666667 -72.533333333333 -147.2 -183.46666666667 -245.33333333333L256 -8.5333333333333z"/><glyph unicode="&#xE080;" glyph-name="favorite22" horiz-adv-x="512" d="M352 384c-36.266666666667 0 -72.533333333333 -17.066666666667 -96 -44.8C232.53333333333 366.933333330116235A43"/><glyph unicode="&#xE081;" glyph-name="filled13" horiz-adv-x="512" d="M256 405.33333333333C138.66666666667 405.33333333333 42.666666666667 309.33333333333 42.666666666667 192c0 -117.33333333333 96 -213.33333333333 213.33333333333 -213.33333333333c117.33333333333 0 213.33333333333 96 213.33333333333 213.33333333333C469.33333333333 309.33333333333 373.33333333333 405.33333333333 256 405.33333333333z"/><glyph unicode="&#xE082;" glyph-name="film61" horiz-adv-x="512" d="M384 384v-42.666666666667h-42.666666666667V384H170.66666666667v-42.666666666667H128V384H85.333333333333v-384h42.666666666667v42.666666666667h42.666666666667v-42.666666666667h170.66666666667v42.666666666667h42.666666666667v-42.666666666667h42.666666666667V384H384zM170.66666666667 85.333333333333H128v42.666666666667h42.666666666667V85.333333333333zM170.66666666667 170.66666666667H128v42.666666666667h42.666666666667V170.66666666667zM170.66666666667 256H128V298.66666666667h42.666666666667V256zM384 85.333333333333h-42.666666666667v42.666666666667h42.666666666667V85.333333333333zM384 170.66666666667h-42.666666666667v42.666666666667h42.666666666667V170.66666666667zM384 256h-42.666666666667V298.66666666667h42.666666666667V256z"/><glyph unicode="&#xE083;" glyph-name="filter20" horiz-adv-x="512" d="M213.33333333333 64h85.333333333333v42.666666666667h-85.333333333333V64zM64 320v-42.666666666667h384V320H64zM128 170.66666666667h256v42.666666666667H128V170.66666666667z"/><glyph unicode="&#xE084;" glyph-name="flash25" horiz-adv-x="512" d="M149.33333333333 405.33333333333L149.33333333333 170.66666666667L213.33333333333 170.66666666667L213.33333333333 -21.333333333333L362.66666666667 234.66666666667L277.33333333333 234.66666666667L362.66666666667 405.33333333333Z"/><glyph unicode="&#xE085;" glyph-name="flash26" horiz-adv-x="512" d="M70.4 384L42.666666666667 356.26666666667l106.66666666667 -106.66666666667V170.66666666667h64v-192l76.8 130.13333333333l87.466666666667 -87.466666666667l27.733333333333 27.733333333333L70.4 384zM362.66666666667 234.66666666667h-85.333333333333l85.333333333333 170.66666666667H149.33333333333v-46.933333333333l181.33333333333 -181.33333333333L362.66666666667 234.66666666667z"/><glyph unicode="&#xE086;" glyph-name="folder215" horiz-adv-x="512" d="M213.33333333333 362.66666666667H85.333333333333C61.866666666667 362.66666666667 42.666666666667 343.46666666667 42.666666666667 320l0 -256c0 -23.466666666667 19.2 -42.666666666667 42.666666666667 -42.666666666667h341.33333333333c23.466666666667 0 42.666666666667 19.2 42.666666666667 42.666666666667V277.33333333333c0 23.466666666667 -19.2 42.666666666667 -42.666666666667 42.666666666667h-170.66666666667L213.33333333333 362.66666666667z"/><glyph unicode="&#xE087;" glyph-name="forward18" horiz-adv-x="512" d="M448 213.33333333333l-149.33333333333 149.33333333333v-85.333333333333C149.33333333333 256 85.333333333333 149.33333333333 64 42.666666666667c53.333333333333 74.666666666667 128 108.8 234.66666666667 108.8V64L448 213.33333333333z"/><glyph unicode="&#xE088;" glyph-name="forward19" horiz-adv-x="512" d="M256 277.33333333333L256 362.66666666667L426.66666666667 192L256 21.333333333333L256 106.66666666667L85.333333333333 106.66666666667L85.333333333333 277.33333333333Z"/></font>
</defs>
</svg>
